Правила форума

  • В этом разделе создание новых тем Запрещено.
  • Для создания новых тем пользуйтесь Корневым разделом DVD и HD фильмы.
Начать новую темуОтветить на тему  [ Сообщений: 3 ] 
Торрент файл
Размер: 6.88 GB • Зарегистрирован: 3 года 11 месяцев • Статус: T Временный релиз
Скачан: 78 раз • Желающих скачать: 0 • Поблагодарили: 19 раз
 Раздают: 0  |  0 KB/s  ]   Качают: 0  |  0 KB/s  ] 
 Полного источника не было 1 год 3 месяца 
Сообщения
 Добавлено: 2012-12-26 17:01
Модератор
Аватара пользователя
Стаж: 6 лет 10 месяцев
Возраст: 33
Сообщений: 5908
Спасибок: 61265
Лайков: 3540
Изображение

Филадельфийский эксперимент
The Philadelphia Experiment


Год выпуска: 2012
Страна: Канада
Жанр: фантастика, триллер, детектив
Продолжительность: 01:28:53
Перевод: Любительский (одноголосый)
Режиссер: Пол Зиллер
Сценарий: Энди Бриггс
Продюсер: Джон Принц, Том Берри, Лиза М. Хансен
Оператор: Майкл С. Бланделл
Композитор: Майкл Нилсон
В ролях: Николас Лиа, Райан Роббинс, Джина Холден, Лауро Чартрэнд, Эллисон Хоссак, Dmytro Kolesnyk, Чад Кровчук, Том МакБет, Малкольм МакДауэлл, Майкл Паре, Марк Поусон, Джон Рирдон

Описание: Целью секретного правительственного исследования является создание оборудования по повторению, так называемого, «Филадельфийского эксперимента» Второй мировой войны, который позволял делать невидимыми военные корабли. Успешно проведенный в наши дни эксперимент возвращает ранее исчезнувший в 1943г. эсминец «Элдридж». Но он приносит в 21 век только смерть и разрушения. Единственный оставшийся в живых после первого эксперимента Леа и его внучка, пытаются остановить это безумие.
Изображение
Мировая премьера: 28 июля 2012
Изображение
Раздача группы: Изображение
Качество: BDRip (1080p)
Формат: Matroska
Видео: MPEG-4 AVC, 9932 Кбит/с, 1920x1080
Аудио: Русский (АС3, 6 ch, 384 Кбит/с), английский (DTS, 6 ch, 755 Кбит/с)
mediainfo

Complete name : Filadel'fijskij jeksperiment.2012.L1.BDRip.1080p.Rus.Eng.Goliaf.mkv
Format : Matroska
File size : 6.88 GiB
Duration : 1h 28mn
Overall bit rate : 11.1 Mbps
Encoded date : UTC 2012-12-26 11:55:44
Writing application : mkvmerge v3.0.0 ('Hang up your Hang-Ups') built on Dec 12 2009 15:20:35
Writing library : libebml v0.7.9 + libmatroska v0.8.1

Video
ID : 1
Format : AVC
Format/Info : Advanced Video Codec
Format profile : High@L4.1
Format settings, CABAC : Yes
Format settings, ReFrames : 4 frames
Codec ID : V_MPEG4/ISO/AVC
Duration : 1h 28mn
Bit rate : 9 932 Kbps
Width : 1 920 pixels
Height : 1 080 pixels
Display aspect ratio : 16:9
Frame rate : 23.976 fps
Color space : YUV
Chroma subsampling : 4:2:0
Bit depth : 8 bits
Scan type : Progressive
Bits/(Pixel*Frame) : 0.200
Stream size : 6.03 GiB (88%)
Title : Goliaf.tv
Writing library : x264 core 129 r2230 1cffe9f
Encoding settings : cabac=1 / ref=4 / deblock=1:-3:-3 / analyse=0x3:0x133 / me=umh / subme=10 / psy=1 / psy_rd=1.00:0.10 / mixed_ref=1 / me_range=64 / chroma_me=1 / trellis=2 / 8x8dct=1 / cqm=0 / deadzone=21,11 / fast_pskip=0 / chroma_qp_offset=-3 / threads=12 / lookahead_threads=2 / sliced_threads=0 / nr=0 / decimate=0 / interlaced=0 / bluray_compat=0 / constrained_intra=0 / bframes=8 / b_pyramid=2 / b_adapt=2 / b_bias=0 / direct=3 / weightb=1 / open_gop=0 / weightp=2 / keyint=360 / keyint_min=2 / scenecut=40 / intra_refresh=0 / rc_lookahead=60 / rc=2pass / mbtree=1 / bitrate=9932 / ratetol=1.0 / qcomp=0.70 / qpmin=0 / qpmax=69 / qpstep=4 / cplxblur=20.0 / qblur=0.5 / vbv_maxrate=50000 / vbv_bufsize=45000 / nal_hrd=none / ip_ratio=1.10 / aq=2:1.00
Language : English

Audio #1
ID : 2
Format : AC-3
Format/Info : Audio Coding 3
Mode extension : CM (complete main)
Codec ID : A_AC3
Duration : 1h 28mn
Bit rate mode : Constant
Bit rate : 384 Kbps
Channel(s) : 6 channels
Channel positions : Front: L C R, Side: L R, LFE
Sampling rate : 48.0 KHz
Bit depth : 16 bits
Compression mode : Lossy
Stream size : 244 MiB (3%)
Language : Russian

Audio #2
ID : 3
Format : DTS
Format/Info : Digital Theater Systems
Codec ID : A_DTS
Duration : 1h 28mn
Bit rate mode : Constant
Bit rate : 755 Kbps
Channel(s) : 6 channels
Channel positions : Front: L C R, Side: L R, LFE
Sampling rate : 48.0 KHz
Bit depth : 16 bits
Compression mode : Lossy
Stream size : 480 MiB (7%)
Language : English
Свернуть
Скриншоты

Изображение
Изображение
Изображение
Изображение
Свернуть
_________________
ИзображениеИзображение Изображение
Изображение
 tany1984 и di-ys1 нравится это.
Не в сети
Профиль  
 Добавлено: 2013-01-08 20:58 (спустя 13 дней)
Аватара пользователя
Стаж: 7 лет 5 месяцев
Сообщений: 18
Спасибок: 76
Изображение
Ну... это норм рейтинг...
+100500 спецэффектам на третьем скрине!))) :-D :-D :-D
Не в сети
Профиль  
 Добавлено: 2013-01-12 20:00 (спустя 3 дня)
Стаж: 3 года 11 месяцев
Сообщений: 101
СПАСИБО!
Не в сети
Профиль  
Начать новую темуОтветить на тему  [ Сообщений: 3 ] 
Вы не можете начинать темы
Вы не можете отвечать на сообщения
Вы не можете редактировать свои сообщения
Вы не можете удалять свои сообщения