Правила форума

  • В этом разделе создание новых тем Запрещено.
  • Для создания новых тем пользуйтесь Корневым разделом DVD и HD фильмы.
Начать новую темуОтветить на тему  [ 1 сообщение ] 
Торрент файл
Размер: 4.64 GB • Зарегистрирован: 4 года 4 месяца • Статус: Проверено
Скачан: 9 раз • Желающих скачать: 0 • Поблагодарили: 3 раза
 Раздают: 0  |  0 KB/s  ]   Качают: 0  |  0 KB/s  ] 
 Полного источника не было 23 дня 
Сообщения
 Добавлено: 2012-07-16 08:30
Книголюб
Аватара пользователя
Стаж: 7 лет 2 месяца
Сообщений: 2823
Спасибок: 48823
Лайков: 73
Финишная прямая
La ligne droite

Изображение


Год выпуска: 2011
Страна: Франция
Жанр: драма, спорт
Продолжительность: 01:38:12
Перевод: Профессиональный (многоголосый закадровый)

Режиссёр: Режис Варнье
В ролях: 9 марта 2011
Описание: Проведя пять лет в тюрьме, Лейла выходит на свободу. Она встречает молодого атлета Янника, который потерял зрение после несчастного случая. Несмотря на свою инвалидность, он продолжает практиковаться в беге, но ему нужен спутник-поводырь. Будучи когда-то самой атлетом Лейла решает помочь ему.
Мировая премьера: 9 марта 2011
Премьера в России: 12 апреля 2012, «Top Film Distribution»
Изображение 6.936 342

Качество: HQRip 720p
Формат: MKV
Видео кодек: H.264
Аудио кодек: DTS
Видео: 4595 Kb/s, 1280x696
Аудио #1: Dolby AC3 Russian 48000Hz 6ch 384 Kb/s
Аудио #2: French: DTS, 48000Hz 6ch 1510 Kb/s
MediaInfo
General
Unique ID : 208600466312650105649993888065519920524 (0x9CEEFD0AF57120EBA0DAC1F7B9F4A58C)
Complete name : K:\Torrent\Finishnaya.pryamaya.2011.P.BDRip.720p.mkv
Format : Matroska
Format version : Version 2
File size : 4.64 GiB
Duration : 1h 42mn
Overall bit rate : 6 482 Kbps
Movie name : Finishnaya pryamaya BDRip 720p IRONCLUB
Encoded date : UTC 2012-05-22 10:38:35
Writing application : mkvmerge v5.3.0 ('I could have danced') built on Feb 9 2012 10:38:07
Writing library : libebml v1.2.3 + libmatroska v1.3.0

Video
ID : 1
Format : AVC
Format/Info : Advanced Video Codec
Format profile : High@L4.1
Format settings, CABAC : Yes
Format settings, ReFrames : 5 frames
Codec ID : V_MPEG4/ISO/AVC
Duration : 1h 42mn
Bit rate : 4 595 Kbps
Width : 1 280 pixels
Height : 696 pixels
Display aspect ratio : 16:9
Frame rate : 24.000 fps
Color space : YUV
Chroma subsampling : 4:2:0
Bit depth : 8 bits
Scan type : Progressive
Bits/(Pixel*Frame) : 0.215
Stream size : 3.19 GiB (69%)
Writing library : x264 core 115 r2008 4c552d8
Encoding settings : cabac=1 / ref=5 / deblock=1:0:0 / analyse=0x3:0x113 / me=umh / subme=7 / psy=1 / psy_rd=1.00:0.00 / mixed_ref=1 / me_range=16 / chroma_me=1 / trellis=1 / 8x8dct=1 / cqm=0 / deadzone=21,11 / fast_pskip=0 / chroma_qp_offset=-2 / threads=12 / sliced_threads=0 / nr=0 / decimate=1 / interlaced=0 / bluray_compat=0 / constrained_intra=0 / bframes=3 / b_pyramid=2 / b_adapt=1 / b_bias=0 / direct=1 / weightb=1 / open_gop=0 / weightp=2 / keyint=250 / keyint_min=24 / scenecut=40 / intra_refresh=0 / rc_lookahead=40 / rc=2pass / mbtree=1 / bitrate=4595 / ratetol=1.0 / qcomp=0.60 / qpmin=0 / qpmax=69 / qpstep=4 / cplxblur=20.0 / qblur=0.5 / ip_ratio=1.40 / aq=1:1.00
Language : French
Default : Yes
Forced : No

Audio #1
ID : 2
Format : AC-3
Format/Info : Audio Coding 3
Mode extension : CM (complete main)
Codec ID : A_AC3
Duration : 1h 42mn
Bit rate mode : Constant
Bit rate : 384 Kbps
Channel(s) : 6 channels
Channel positions : Front: L C R, Side: L R, LFE
Sampling rate : 48.0 KHz
Bit depth : 16 bits
Compression mode : Lossy
Stream size : 281 MiB (6%)
Title : RUS R5
Language : Russian
Default : Yes
Forced : Yes

Audio #2
ID : 3
Format : DTS
Format/Info : Digital Theater Systems
Codec ID : A_DTS
Duration : 1h 42mn
Bit rate mode : Constant
Bit rate : 1 510 Kbps
Channel(s) : 6 channels
Channel positions : Front: L C R, Side: L R, LFE
Sampling rate : 48.0 KHz
Bit depth : 24 bits
Compression mode : Lossy
Stream size : 1.08 GiB (23%)
Title : DTS 5.1
Language : French
Default : No
Forced : No

Text #1
ID : 4
Format : UTF-8
Codec ID : S_TEXT/UTF8
Codec ID/Info : UTF-8 Plain Text
Title : Forced
Language : French
Default : No
Forced : No

Text #2
ID : 5
Format : UTF-8
Codec ID : S_TEXT/UTF8
Codec ID/Info : UTF-8 Plain Text
Title : ENG
Language : English
Default : No
Forced : No


Свернуть

Скриншоты
Изображение
Изображение
Изображение
Свернуть
Не в сети
Профиль  
Начать новую темуОтветить на тему  [ 1 сообщение ] 
Вы не можете начинать темы
Вы не можете отвечать на сообщения
Вы не можете редактировать свои сообщения
Вы не можете удалять свои сообщения