Правила форума

  • В этом разделе создание новых тем Запрещено.
  • Для создания новых тем пользуйтесь Корневым разделом DVD и HD фильмы.
Начать новую темуОтветить на тему  [ Сообщений: 14 ] 
Торрент файл
Размер: 7.93 GB • Зарегистрирован: 1 год 6 месяцев • Статус: Проверено
Скачан: 749 раз • Желающих скачать: 0 • Поблагодарили: 149 раз
 Раздают: 4  |  0 KB/s  ]   Качают: 0  |  0 KB/s  ] 
Сообщения
 Добавлено: 2015-05-16 08:15
DVD Release Group
Аватара пользователя
Стаж: 7 лет 1 месяц
Сообщений: 3546
Спасибок: 246990
Лайков: 1018
Фокус

Focus


Изображение


Год выпуска: 2015
Страна: США
Жанр: Драма, мелодрама, комедия, криминал
Продолжительность: 01:44:44
Перевод: Профессиональный (полное дублирование)
Режиссер: Гленн Фикарра, Джон Рекуа
В ролях: Уилл Смит, Марго Робби, Родриго Санторо, Джералд МакРэйни, Б.Д. Вонг, Роберт Тейлор, Бреннан Браун, Адриан Мартинес, Лаура Флэннери, Стефани Онор
Описание: История об опытном мошеннике, который влюбляется в девушку, делающую первые шаги на поприще нелегального отъема средств у граждан. Отношения становятся для них проблемой, когда обнаруживается, что романтика мешает их нечестному бизнесу.
ИзображениеИзображение
Качество: BDRip 1080p
Формат: MKV
Видео кодек: H.264
Аудио кодек: AC3, DTS
Видео: 1920x1080 23.98fps 8945kbps
Аудио:
Аудио Rus: AC3 48kHz 6ch 384kbps
Аудио Eng: DTS 48kHz 6ch 1510kbps
"MediaInfo"
Формат : Matroska
Версия формата : Version 4 / Version 2
Размер файла : 7,93 Гбайт
Продолжительность : 1 ч. 44 м.
Общий поток : 10,8 Мбит/сек
Дата кодирования : UTC 2015-05-15 22:04:35
Программа кодирования : mkvmerge v7.6.0 ('Garden of Dreams') 32bit built on Feb 8 2015 12:51:39
Библиотека кодирования : libebml v1.3.1 + libmatroska v1.4.2

Видео
Идентификатор : 1
Формат : AVC
Формат/Информация : Advanced Video Codec
Профиль формата : High@L4.1
Параметр CABAC формата : Да
Параметр ReFrames формата : 4 кадра
Идентификатор кодека : V_MPEG4/ISO/AVC
Продолжительность : 1 ч. 44 м.
Битрейт : 8945 Кбит/сек
Ширина : 1920 пикселей
Высота : 1080 пикселей
Соотношение сторон : 16:9
Режим частоты кадров : Постоянный
Частота кадров : 23,976 кадра/сек
Цветовое пространство : YUV
Субдискретизация насыщенности : 4:2:0
Битовая глубина : 8 бит
Тип развёртки : Прогрессивная
Бит/(Пиксели*Кадры) : 0.180
Размер потока : 6,38 Гбайт (81%)
Библиотека кодирования : x264 core 144 r2525 40bb568
Настройки программы : cabac=1 / ref=4 / deblock=1:0:0 / analyse=0x3:0x133 / me=umh / subme=7 / psy=1 / psy_rd=1.00:0.00 / mixed_ref=1 / me_range=16 / chroma_me=1 / trellis=1 / 8x8dct=1 / cqm=0 / deadzone=21,11 / fast_pskip=0 / chroma_qp_offset=-2 / threads=18 / lookahead_threads=3 / sliced_threads=0 / nr=0 / decimate=1 / interlaced=0 / bluray_compat=0 / constrained_intra=0 / bframes=3 / b_pyramid=2 / b_adapt=1 / b_bias=0 / direct=1 / weightb=1 / open_gop=0 / weightp=2 / keyint=250 / keyint_min=23 / scenecut=40 / intra_refresh=0 / rc_lookahead=40 / rc=2pass / mbtree=1 / bitrate=8945 / ratetol=1.0 / qcomp=0.60 / qpmin=0 / qpmax=69 / qpstep=4 / cplxblur=20.0 / qblur=0.5 / ip_ratio=1.40 / aq=1:1.00
Язык : English
Default : Да
Forced : Нет

Аудио #1
Идентификатор : 2
Формат : AC-3
Формат/Информация : Audio Coding 3
Расширение режима : CM (complete main)
Параметр Endianness формата : Big
Идентификатор кодека : A_AC3
Продолжительность : 1 ч. 44 м.
Вид битрейта : Постоянный
Битрейт : 384 Кбит/сек
Каналы : 6 каналов
Расположение каналов : Front: L C R, Side: L R, LFE
Частота : 48,0 КГц
Битовая глубина : 16 бит
Метод сжатия : С потерями
Размер потока : 288 Мбайт (4%)
Язык : Russian
Default : Да
Forced : Нет

Аудио #2
Идентификатор : 3
Формат : DTS
Формат/Информация : Digital Theater Systems
Режим : 16
Параметр Endianness формата : Big
Идентификатор кодека : A_DTS
Продолжительность : 1 ч. 44 м.
Вид битрейта : Постоянный
Битрейт : 1509 Кбит/сек
Каналы : 6 каналов
Расположение каналов : Front: L C R, Side: L R, LFE
Частота : 48,0 КГц
Битовая глубина : 24 бит
Метод сжатия : С потерями
Размер потока : 1,10 Гбайт (14%)
Язык : English
Default : Нет
Forced : Нет

Меню
00:00:00.000 : en:00:00:00.000
00:09:17.974 : en:00:09:17.974
00:18:55.217 : en:00:18:55.217
00:30:22.904 : en:00:30:22.904
00:40:56.079 : en:00:40:56.079
00:49:16.370 : en:00:49:16.370
01:00:10.482 : en:01:00:10.482
01:11:02.758 : en:01:11:02.758
01:20:27.489 : en:01:20:27.489
01:28:33.892 : en:01:28:33.892
01:39:19.620 : en:01:39:19.620
Свернуть

"Скриншоты"
Изображение
Изображение
Изображение
Свернуть
 sashannov нравится это.
Не в сети
Профиль  
 Добавлено: 2015-05-16 15:21 (спустя 7 часов)
Стаж: 9 лет
Сообщений: 187
Спасибок: 77
Лайков: 1
Пасиб. Давно ждал ))))
Не в сети
Профиль  
 Добавлено: 2015-05-16 19:33 (спустя 4 часа)
Аватара пользователя
Стаж: 7 лет 5 месяцев
Сообщений: 168
Спасибок: 280
Помогите пожалуйста с проблемой :'(
У меня почти отсутствует звук разговоров, именно разговоров. Почти, потому что звук разговоров доносится будто бы из другой комнаты и очень тихо. Ещё кажется, что звук раговоров идет только от сабвуфера (у меня 5.1 - 5 маленьких колонок и сабвуфер). Извиняюсь за тавтологию
С музыкой все нормально - слышно хорошо и четко от всех колонок - проблем нет
Как решить эту проблему? :ny_tik:
Не в сети
Профиль  
 Добавлено: 2015-05-16 21:10 (спустя 1 час 36 минут)
Стаж: 9 лет 1 месяц
Возраст: 32
Сообщений: 263
Лайков: 9
sevgelos
видимо, посмотреть в настройках плеера, что-то там накручено не то, я полагаю.
Не в сети
Профиль  
 Добавлено: 2015-05-16 21:14 (спустя 4 минуты)
Аватара пользователя
Стаж: 7 лет 5 месяцев
Сообщений: 168
Спасибок: 280

Snake88:

sevgelos
видимо, посмотреть в настройках плеера, что-то там накручено не то, я полагаю.
Навряд ли, потому что через этот же плеер я открываю другие фильмы и все хорошо

Добавлено спустя 49 секунд:
КСТАТИ, КОГДА Я ВКЛЮЧАЮ НАУШНИКИ, ТО ВСЕ НАЛАЖИВАЕТСЯ - ЗВУК РАЗГОВОР СЛЫШЕН НОРМАЛЬНО
Не в сети
Профиль  
 Добавлено: 2015-05-17 15:24 (спустя 18 часов)
Стаж: 9 лет 1 месяц
Возраст: 32
Сообщений: 263
Лайков: 9
sevgelos
т.е. только в этом фильме так?
Не в сети
Профиль  
 Добавлено: 2015-05-18 17:36 (спустя 1 день 2 часа)
Аватара пользователя
Стаж: 7 лет 5 месяцев
Сообщений: 168
Спасибок: 280

Snake88:

sevgelos
т.е. только в этом фильме так?
Да, включал другие фильмы и все нормально
Не в сети
Профиль  
 Добавлено: 2015-05-18 19:45 (спустя 2 часа 9 минут)
Стаж: 9 лет 1 месяц
Возраст: 32
Сообщений: 263
Лайков: 9
sevgelos
так может попробовать другой релиз скачать какой нить? ибо я правда в затруднении, т.к. скачано 121 раз и только ты отписался об этом :)
Не в сети
Профиль  
 Добавлено: 2015-05-18 21:17 (спустя 1 час 32 минуты)
Аватара пользователя
Стаж: 7 лет 5 месяцев
Сообщений: 168
Спасибок: 280

Snake88:

sevgelos
так может попробовать другой релиз скачать какой нить? ибо я правда в затруднении, т.к. скачано 121 раз и только ты отписался об этом :)
Других релизов в таком качестве нет
"Слушай", а может попробовать перекачать торрент или дело в другом?

Добавлено спустя 12 минут:
Проблема решена. Причина была в проигрывателе :-D
Не в сети
Профиль  
 Добавлено: 2015-05-19 01:50 (спустя 4 часа)
Стаж: 9 лет 1 месяц
Возраст: 32
Сообщений: 263
Лайков: 9

sevgelos:

Проблема решена. Причина была в проигрывателе :-D
:-D жесть. ну хорошо, шо разрешилось. (перекачать, насколько я понимаю, не помогло бы вообще никак)
Не в сети
Профиль  
 Добавлено: 2015-05-27 03:34 (спустя 8 дней)
Аватара пользователя
Стаж: 7 лет 6 месяцев
Возраст: 51
Сообщений: 1781
Лайков: 1395
sevgelos

Какая трагическая история! "Спустя 12 минут: астероид прошел мимо Земли. Человечество спасено!"

Я рыдал. :'(
Не в сети
Профиль  
 Добавлено: 2015-06-03 19:53 (спустя 7 дней)
Стаж: 7 лет 1 месяц
Возраст: 30
Сообщений: 35
Для Уилла Смита фильм слабоват.
Не в сети
Профиль  
 Добавлено: 2015-06-15 22:06 (спустя 12 дней)
Аватара пользователя
Стаж: 8 лет 3 месяца
Сообщений: 198
Лайков: 8
Для меня уж больно нудный фильм, а ещё ведь Уилл Смит был на Top Gear в гостях и так нахваливал этот фильм)))
Не в сети
Профиль  
 Добавлено: 2015-06-29 18:05 (спустя 13 дней)
Аватара пользователя
Стаж: 9 лет 1 месяц
Возраст: 36
Сообщений: 195
Спасибок: 20
Лайков: 8
Дааа, половина комментариев о парне у которого фильм не показывает))))А если о фильме, местами неожиданно, местами предсказуемо, все как то местами, но стоит посмотреть ради эпизода на стадионе.
Не в сети
Профиль  
Начать новую темуОтветить на тему  [ Сообщений: 14 ] 
Вы не можете начинать темы
Вы не можете отвечать на сообщения
Вы не можете редактировать свои сообщения
Вы не можете удалять свои сообщения