Правила форума

  • В этом разделе создание новых тем Запрещено.
  • Для создания новых тем пользуйтесь Корневым разделом DVD и HD фильмы.
Начать новую темуОтветить на тему  [ 1 сообщение ] 
Торрент файл
Размер: 5.74 GB • Зарегистрирован: 1 год 6 месяцев • Статус: Проверено
Скачан: 76 раз • Желающих скачать: 0 • Поблагодарили: 19 раз
 Раздают: 0  |  0 KB/s  ]   Качают: 0  |  0 KB/s  ] 
 Полного источника не было 6 часов 
Сообщения
 Добавлено: 2015-05-16 08:19
DVD Release Group
Аватара пользователя
Стаж: 7 лет 1 месяц
Сообщений: 3569
Спасибок: 247804
Лайков: 1020
Фокус

Focus


Изображение


Год выпуска: 2015
Страна: США
Жанр: Драма, мелодрама, комедия, криминал
Продолжительность: 01:44:44
Перевод: Профессиональный (полное дублирование)
Режиссер: Гленн Фикарра, Джон Рекуа
В ролях: Уилл Смит, Марго Робби, Родриго Санторо, Джералд МакРэйни, Б.Д. Вонг, Роберт Тейлор, Бреннан Браун, Адриан Мартинес, Лаура Флэннери, Стефани Онор
Описание: История об опытном мошеннике, который влюбляется в девушку, делающую первые шаги на поприще нелегального отъема средств у граждан. Отношения становятся для них проблемой, когда обнаруживается, что романтика мешает их нечестному бизнесу.
ИзображениеИзображение
Качество: BDRip 720p
Формат: MKV
Видео кодек: H.264
Аудио кодек: AC3, DTS
Видео: 1280x720 23.98fps 5955kbps
Аудио:
Аудио Rus: AC3 48kHz 6ch 384kbps
Аудио Eng: DTS 48kHz 6ch 1510kbps
"MediaInfo"
Формат : Matroska
Версия формата : Version 2
Размер файла : 5,74 Гбайт
Продолжительность : 1 ч. 44 м.
Общий поток : 7849 Кбит/сек
Дата кодирования : UTC 2015-05-15 19:38:29
Программа кодирования : mkvmerge v7.9.0 ('Birds') 64bit
Библиотека кодирования : libebml v1.3.1 + libmatroska v1.4.2
DURATION : 01:44:43.040000000
NUMBER_OF_FRAMES : 196345
NUMBER_OF_BYTES : 301585920
_STATISTICS_WRITING_APP : mkvmerge v7.9.0 ('Birds') 64bit
_STATISTICS_WRITING_DATE_UTC : 2015-05-15 19:38:29
_STATISTICS_TAGS : BPS DURATION NUMBER_OF_FRAMES NUMBER_OF_BYTES

Видео
Идентификатор : 1
Формат : AVC
Формат/Информация : Advanced Video Codec
Профиль формата : High@L4.1
Параметр CABAC формата : Да
Параметр ReFrames формата : 5 кадров
Идентификатор кодека : V_MPEG4/ISO/AVC
Продолжительность : 1 ч. 44 м.
Битрейт : 5955 Кбит/сек
Ширина : 1280 пикселей
Высота : 720 пикселей
Соотношение сторон : 16:9
Режим частоты кадров : Постоянный
Частота кадров : 23,976 кадра/сек
Цветовое пространство : YUV
Субдискретизация насыщенности : 4:2:0
Битовая глубина : 8 бит
Тип развёртки : Прогрессивная
Бит/(Пиксели*Кадры) : 0.270
Размер потока : 4,24 Гбайт (74%)
Библиотека кодирования : x264 core 144 r2525 40bb568
Настройки программы : cabac=1 / ref=5 / deblock=1:0:0 / analyse=0x3:0x133 / me=umh / subme=7 / psy=1 / psy_rd=1.00:0.00 / mixed_ref=1 / me_range=16 / chroma_me=1 / trellis=1 / 8x8dct=1 / cqm=0 / deadzone=21,11 / fast_pskip=0 / chroma_qp_offset=-2 / threads=18 / lookahead_threads=3 / sliced_threads=0 / nr=0 / decimate=1 / interlaced=0 / bluray_compat=0 / constrained_intra=0 / bframes=3 / b_pyramid=2 / b_adapt=1 / b_bias=0 / direct=1 / weightb=1 / open_gop=0 / weightp=2 / keyint=250 / keyint_min=23 / scenecut=40 / intra_refresh=0 / rc_lookahead=40 / rc=2pass / mbtree=1 / bitrate=5955 / ratetol=1.0 / qcomp=0.60 / qpmin=0 / qpmax=69 / qpstep=4 / cplxblur=20.0 / qblur=0.5 / ip_ratio=1.40 / aq=1:1.00
Язык : English
Default : Да
Forced : Нет
DURATION : 01:44:44.080000000
NUMBER_OF_FRAMES : 150667
NUMBER_OF_BYTES : 4676265078
_STATISTICS_WRITING_APP : mkvmerge v7.9.0 ('Birds') 64bit
_STATISTICS_WRITING_DATE_UTC : 2015-05-15 19:38:29
_STATISTICS_TAGS : BPS DURATION NUMBER_OF_FRAMES NUMBER_OF_BYTES

Аудио #1
Идентификатор : 2
Формат : AC-3
Формат/Информация : Audio Coding 3
Расширение режима : CM (complete main)
Параметр Endianness формата : Big
Идентификатор кодека : A_AC3
Продолжительность : 1 ч. 44 м.
Вид битрейта : Постоянный
Битрейт : 384 Кбит/сек
Каналы : 6 каналов
Расположение каналов : Front: L C R, Side: L R, LFE
Частота : 48,0 КГц
Битовая глубина : 16 бит
Метод сжатия : С потерями
Размер потока : 288 Мбайт (5%)
Default : Да
Forced : Нет

Аудио #2
Идентификатор : 3
Формат : DTS
Формат/Информация : Digital Theater Systems
Режим : 16
Параметр Endianness формата : Big
Идентификатор кодека : A_DTS
Продолжительность : 1 ч. 44 м.
Вид битрейта : Постоянный
Битрейт : 1509 Кбит/сек
Каналы : 6 каналов
Расположение каналов : Front: L C R, Side: L R, LFE
Частота : 48,0 КГц
Битовая глубина : 24 бит
Метод сжатия : С потерями
Размер потока : 1,10 Гбайт (19%)
Язык : English
Default : Нет
Forced : Нет

Меню
00:00:00.000 : en:00:00:00.000
00:09:17.974 : en:00:09:17.974
00:18:55.217 : en:00:18:55.217
00:30:22.904 : en:00:30:22.904
00:40:56.079 : en:00:40:56.079
00:49:16.370 : en:00:49:16.370
01:00:10.482 : en:01:00:10.482
01:11:02.758 : en:01:11:02.758
01:20:27.489 : en:01:20:27.489
01:28:33.892 : en:01:28:33.892
01:39:19.620 : en:01:39:19.620
Свернуть

"Скриншоты"
Изображение
Изображение
Изображение
Свернуть
Не в сети
Профиль  
Начать новую темуОтветить на тему  [ 1 сообщение ] 
Вы не можете начинать темы
Вы не можете отвечать на сообщения
Вы не можете редактировать свои сообщения
Вы не можете удалять свои сообщения