Правила форума

  • В этом разделе создание новых тем Запрещено.
  • Для создания новых тем пользуйтесь Корневым разделом DVD и HD фильмы.
Начать новую темуОтветить на тему  [ Сообщений: 6 ] 
Торрент файл
Размер: 37.69 GB • Зарегистрирован: 5 лет 10 месяцев • Статус: Проверено
Скачан: 56 раз • Желающих скачать: 0 • Поблагодарили: 21 раз
 Раздают: 1  |  0 KB/s  ]   Качают: 0  |  0 KB/s  ] 
Сообщения
 Добавлено: 2011-01-06 22:54
Аватара пользователя
Стаж: 7 лет 11 месяцев
Сообщений: 100
Спасибок: 1357
Форрест Гамп
Forrest Gump

Изображение

Год выпуска: 1994
Страна: США
Слоган: «Мир уже никогда не будет прежним, после того как вы увидите его глазами Форреста Гампа.»

Жанр: драма, мелодрама
Продолжительность: 02:22:09
Перевод: Профессиональный (многоголосый, закадровый)

Режиссер: Роберт Земекис / Robert Zemeckis
Сценарий: Уинстон Грум / Winston Groom, Эрик Рот / Eric Roth
Продюсер: Венди Файнерман / Wendy Finerman, Чарльз Невирт / Charles Newirth, Стив Старки / Steve Starkey, Стив Тисч / Steve Tisch
Оператор: Дон Бёрджесс / Don Burgess
Композитор: Алан Сильвестри / Alan Silvestri

В ролях: Том Хэнкс (Forrest Gump,), Робин Райт (Jenny Curran), Гэри Синиз (Lt. Dan Taylor), Майкелти Уильямсон (Pvt. Benjamin Buford), Сэлли Филд (Mrs. Gump), Ребекка Уильямс (Nurse at Park Bench), Майкл Коннер Хэмпфри (Young Forrest Gump), Харольд Дж. Хертэм (Doctor), Джордж Келли (Barber), Боб Пенни (Crony), Джон Рэндолл (Crony), Сэм Андерсон (Principal)
Бюджет: $55 000 000
Сборы в США: $329 694 499
Сборы в мире: $677 386 686

Мировая премьера: 23 июня 1994
Релиз на DVD: 1 декабря 2009, «Юниверсал Пикчерс Рус»
Описание: От лица главного героя Форреста Гампа, слабоумного безобидного человека с благородным и открытым сердцем, рассказывается история его необыкновенной жизни.
Фантастическим образом превращается он в известного футболиста, героя войны, преуспевающего бизнесмена. Он становится миллиардером, но остается таким же бесхитростным, глупым и добрым. Форреста ждет постоянный успех во всем, а он любит девочку, с которой дружил в детстве, но взаимность приходит слишком поздно.
Изображение

Качество: Blu-Ray Remux 1080p
Формат: MKV
Видео: 1920x1080 at 23.976 fps, MPEG-4 AVC, ~26,5 Mbps avg
Аудио#1: Russian: 48 kHz, AC3, 3/2 (L,C,R,l,r) + LFE ch, ~448.00 kbps avg |Многоголосый закадровый, FDV / Киномания|
Аудио#2: Russian: 48 kHz, DTS, 3/2 (L,C,R,l,r) + LFE ch, ~1536.00 kbps avg |Многоголосый закадровый, Позитив-мультимедиа|
Аудио#3: Russian: 48 kHz, DTS, 3/2 (L,C,R,l,r) + LFE ch, ~1536.00 kbps avg |Многоголосый закадровый, неизвестный|
Аудио#4: Russian: 48 kHz, DTS, 3/2 (L,C,R,l,r) + LFE ch, ~1536.00 kbps avg |Одноголосый закадровый, А. Гаврилов|
Аудио#5: Russian: 48 kHz, DTS, 3/2 (L,C,R,l,r) + LFE ch, ~1536.00 kbps avg |Одноголосый закадровый, Ю. Сербин|
Аудио#6: Russian: 48 kHz, AC3, 2/0 (L,R), ~192.00 kbps avg |Одноголосый закадровый, комментарии Тома Хенкса|
Аудио#7: Russian: 48 kHz, AC3, 2/0 (L,R), ~192.00 kbps avg |Одноголосый закадровый, комментарии продюсера Венди Файнермана|
Аудио#8: English: 48 kHz, DTS-HD MA 5.1, ~4094.00 kbps avg
Аудио#9: English: 48 kHz, AC3, 2/0 (L,R), ~224.00 kbps avg |Одноголосый закадровый, комментарии Тома Хенкса|
Аудио#10: English: 48 kHz, AC3, 2/0 (L,R), ~224.00 kbps avg |Одноголосый закадровый, комментарии продюсера Венди Файнермана|
Субтитры: Russian (Позитив-мультимедиа), Russian (неизвестный), Russian (Комментарии 1,2), English
MediaInfo
Общее
Уникальный идентификатор : 191168383822645667091343757329321189520 (0x8FD1B104FDD45963BCE36D1D1F8C6090)
Полное имя : D:\FORREST GUMP BD-REMUX\FORREST.GUMP.1994.BD.REMUX..mkv
Формат : Matroska
Размер файла : 37,7 Гбайт
Продолжительность : 2 ч. 22 м.
Общий поток : 38,0 Мбит/сек
Название фильма : Forrest Gump (1994)
Дата кодирования : UTC 2009-11-01 17:27:45
Программа кодирования : mkvmerge v2.9.7 ('Tenderness') built on Jul 1 2009 18:43:35
Библиотека кодирования : libebml v0.7.7 + libmatroska v0.8.1
Обложка : Yes / Yes / Yes

Видео
Идентификатор : 1
Формат : AVC
Формат/Информация : Advanced Video Codec
Профиль формата : High@L4.1
Параметр CABAC формата : Да
Параметр ReFrames формата : 4 кадры
Режим смешивания : Container profile=Unknown@0.0
Идентификатор кодека : V_MPEG4/ISO/AVC
Продолжительность : 2 ч. 22 м.
Вид битрейта : Переменный
Битрейт : 28,3 Мбит/сек
Максимальный битрейт : 35,5 Мбит/сек
Ширина : 1920 пикс.
Высота : 1080 пикс.
Соотношение сторон : 16:9
Частота кадров : 23,976 кадр/сек
Цветовое пространство : YUV
Подвыборка цветности : 4:2:0
Битовая глубина : 8 бит
Тип развёртки : Прогрессивная
Бит/(Пиксели*Кадры) : 0.569
Размер потока : 28,1 Гбайт (75%)
Язык : English
Основные цвета : BT.709-5, BT.1361, IEC 61966-2-4, SMPTE RP177
Характеристики трансфера : BT.709-5, BT.1361
Коэффициенты матрицы : BT.709-5, BT.1361, IEC 61966-2-4 709, SMPTE RP177

Аудио #1
Идентификатор : 2
Формат : AC-3
Формат/Информация : Audio Coding 3
Расширение режима : CM (complete main)
Идентификатор кодека : A_AC3
Продолжительность : 2 ч. 22 м.
Вид битрейта : Постоянный
Битрейт : 448 Кбит/сек
Канал(ы) : 6 канала(ов)
Расположение каналов : Front: L C R, Side: L R, LFE
Частота : 48,0 КГц
Битовая глубина : 16 бит
Метод сжатия : С потерями
Размер потока : 456 Мбайт (1%)
Заголовок : AC3 5.1 @ 448 kbps - Многоголосый закадровый, FDV / Киномания
Язык : Russian

Аудио #2
Идентификатор : 3
Формат : DTS
Формат/Информация : Digital Theater Systems
Идентификатор кодека : A_DTS
Продолжительность : 2 ч. 22 м.
Вид битрейта : Постоянный
Битрейт : 1510 Кбит/сек
Канал(ы) : 6 канала(ов)
Расположение каналов : Front: L C R, Side: L R, LFE
Частота : 48,0 КГц
Битовая глубина : 24 бит
Метод сжатия : С потерями
Размер потока : 1,50 Гбайт (4%)
Заголовок : DTS 5.1 @ 1536 kbps - Многоголосый закадровый, Позитив-мультимедиа
Язык : Russian

Аудио #3
Идентификатор : 4
Формат : DTS
Формат/Информация : Digital Theater Systems
Идентификатор кодека : A_DTS
Продолжительность : 2 ч. 22 м.
Вид битрейта : Постоянный
Битрейт : 1510 Кбит/сек
Канал(ы) : 6 канала(ов)
Расположение каналов : Front: L C R, Side: L R, LFE
Частота : 48,0 КГц
Битовая глубина : 24 бит
Метод сжатия : С потерями
Размер потока : 1,50 Гбайт (4%)
Заголовок : DTS 5.1 @ 1536 kbps - Многоголосый закадровый, Тайкун
Язык : Russian

Аудио #4
Идентификатор : 5
Формат : DTS
Формат/Информация : Digital Theater Systems
Идентификатор кодека : A_DTS
Продолжительность : 2 ч. 22 м.
Вид битрейта : Постоянный
Битрейт : 1510 Кбит/сек
Канал(ы) : 6 канала(ов)
Расположение каналов : Front: L C R, Side: L R, LFE
Частота : 48,0 КГц
Битовая глубина : 24 бит
Метод сжатия : С потерями
Размер потока : 1,50 Гбайт (4%)
Заголовок : DTS 5.1 @ 1536 kbps - Одноголосый закадровый, А. Гаврилов
Язык : Russian

Аудио #5
Идентификатор : 6
Формат : DTS
Формат/Информация : Digital Theater Systems
Идентификатор кодека : A_DTS
Продолжительность : 2 ч. 22 м.
Вид битрейта : Постоянный
Битрейт : 1510 Кбит/сек
Канал(ы) : 6 канала(ов)
Расположение каналов : Front: L C R, Side: L R, LFE
Частота : 48,0 КГц
Битовая глубина : 24 бит
Метод сжатия : С потерями
Размер потока : 1,50 Гбайт (4%)
Заголовок : DTS 5.1 @ 1536 kbps - Одноголосый закадровый, Ю. Сербин
Язык : Russian

Аудио #6
Идентификатор : 7
Формат : AC-3
Формат/Информация : Audio Coding 3
Расширение режима : CM (complete main)
Идентификатор кодека : A_AC3
Продолжительность : 2 ч. 22 м.
Вид битрейта : Постоянный
Битрейт : 192 Кбит/сек
Канал(ы) : 2 канала(ов)
Расположение каналов : Front: L R
Частота : 48,0 КГц
Битовая глубина : 16 бит
Метод сжатия : С потерями
Размер потока : 195 Мбайт (1%)
Заголовок : AC3 2.0 @ 192 kbps - Одноголосый закадровый, Комментарии Тома Хенкса
Язык : Russian

Аудио #7
Идентификатор : 8
Формат : AC-3
Формат/Информация : Audio Coding 3
Расширение режима : CM (complete main)
Идентификатор кодека : A_AC3
Продолжительность : 2 ч. 22 м.
Вид битрейта : Постоянный
Битрейт : 192 Кбит/сек
Канал(ы) : 2 канала(ов)
Расположение каналов : Front: L R
Частота : 48,0 КГц
Битовая глубина : 16 бит
Метод сжатия : С потерями
Размер потока : 195 Мбайт (1%)
Заголовок : AC3 2.0 @ 192 kbps - Одноголосый закадровый, Комментарии продюсера Венди Файнермана
Язык : Russian

Аудио #8
Идентификатор : 9
Формат : DTS
Формат/Информация : Digital Theater Systems
Профиль формата : MA / Core
Идентификатор кодека : A_DTS
Продолжительность : 2 ч. 22 м.
Вид битрейта : Переменный
Битрейт : 1576 Кбит/сек / 1510 Кбит/сек
Канал(ы) : 6 канала(ов)
Расположение каналов : Front: L C R, Side: L R, LFE
Частота : 48,0 КГц
Битовая глубина : 24 бит
Метод сжатия : Без потерь / Lossy
Заголовок : DTS-HD MA 5.1 @ ~4094.00 kbps
Язык : English

Аудио #9
Идентификатор : 10
Формат : AC-3
Формат/Информация : Audio Coding 3
Профиль формата : Dolby Digital
Расширение режима : CM (complete main)
Идентификатор кодека : A_AC3
Продолжительность : 2 ч. 22 м.
Вид битрейта : Постоянный
Битрейт : 224 Кбит/сек
Канал(ы) : 2 канала(ов)
Расположение каналов : Front: L R
Частота : 48,0 КГц
Битовая глубина : 16 бит
Метод сжатия : С потерями
Размер потока : 228 Мбайт (1%)
Заголовок : AC3 2.0 @ 192 kbps - Комментарии Тома Хенкса
Язык : English

Аудио #10
Идентификатор : 11
Формат : AC-3
Формат/Информация : Audio Coding 3
Профиль формата : Dolby Digital
Расширение режима : CM (complete main)
Идентификатор кодека : A_AC3
Продолжительность : 2 ч. 22 м.
Вид битрейта : Постоянный
Битрейт : 224 Кбит/сек
Канал(ы) : 2 канала(ов)
Расположение каналов : Front: L R
Частота : 48,0 КГц
Битовая глубина : 16 бит
Метод сжатия : С потерями
Размер потока : 228 Мбайт (1%)
Заголовок : AC3 2.0 @ 192 kbps - Комментарии продюсера Венди Файнермана
Язык : English

Текст #1
Идентификатор : 12
Формат : UTF-8
Идентификатор кодека : S_TEXT/UTF8
Идентификатор кодека/Информация : UTF-8 Plain Text
Заголовок : Позитив-мультимеди
Язык : Russian

Текст #2
Идентификатор : 13
Формат : UTF-8
Идентификатор кодека : S_TEXT/UTF8
Идентификатор кодека/Информация : UTF-8 Plain Text
Заголовок : Тайкун
Язык : Russian

Текст #3
Идентификатор : 14
Формат : UTF-8
Идентификатор кодека : S_TEXT/UTF8
Идентификатор кодека/Информация : UTF-8 Plain Text
Заголовок : Комментарии Тома Хенкса
Язык : Russian

Текст #4
Идентификатор : 15
Формат : UTF-8
Идентификатор кодека : S_TEXT/UTF8
Идентификатор кодека/Информация : UTF-8 Plain Text
Заголовок : Комментарии продюсера Венди Файнермана
Язык : Russian

Текст #5
Идентификатор : 16
Формат : ASS
Идентификатор кодека : S_TEXT/ASS
Идентификатор кодека/Информация : Advanced Sub Station Alpha
Метод сжатия : Без потерь
Язык : English

Меню
00:00:00.000 : :1. I'm Forest...Forest Gump
00:06:43.569 : :2. Mama
00:12:24.577 : :3. Like Peas and Carrots
00:19:56.945 : :4. Run Forest Run!
00:31:13.705 : :5. Private Gump
00:40:40.187 : :6. Lieutenant Dan
00:44:18.113 : :7. My Best Good Friend
00:56:34.474 : :8. Wounded In the Buttocks
01:03:32.266 : :9. You're My Girl
01:13:34.076 : :10. National Celebrity
01:17:02.826 : :11. Happy New Year
01:23:52.277 : :12. Shrimp Boat Captain
01:34:59.944 : :13. Bubba Gump
01:38:55.596 : :14. Mama's Trip To Heaven
01:43:52.893 : :15. Jenny Comes Home
01:51:28.306 : :16. A Little Run
01:58:54.710 : :17. Forrest Meets Forrest
02:04:48.564 : :18. Beloved Mother, Wife and Friend
02:15:25.200 : :19. Credits
Свернуть
"Знаете ли Вы, что..."
  • В ходе съемок одной из сцен Том Хэнкс говорит: «Мое имя — Форрест Гамп. Люди зовут меня Форрест Гамп». На самом деле актер совершил оговорку, но режиссеру Роберту Земекису она пришлась по вкусу, и он включил именно этот дубль в итоговую версию картины.
  • Роль Форреста прочили Биллу Мюррею.
  • Режиссерское кресло могло достаться Барри Зонненфельду и Терри Гиллиаму.
  • Во время съемок футбольных сцен Том Хэнкс был болен гриппом, однако стойко выдержал испытания и отработал в эти дни через «не могу».
  • Том Хэнкс согласился принять участие в съемках с одним условием: все события картины должны перекликаться с реальными историческими событиями.
  • В эпизодических ролях были задействованы Александр Земекис (сын режиссера) и Элизабет Хэнкс (дочь актера).
  • После того, как Дженни (Робин Райт) умирает, Форест приходит посетить ее могилу. Он говорит: «Ты умерла в субботу». Однако надпись на могильном камне противоречит данной фразе. Там указана дата смерти — 22 марта 1982 года (понедельник).
  • Имя персонажа Forrest Gump созвучно словосочетанию «forest gamp» — что в переводе с английского означает «лесной зонтик». Сами слова, однако, переводятся как «лесной житель» и «придурок».
  • Фильм достаточно далеко ушёл от исходного романа Уинстона Грума, в котором Форрест Гамп показан резким несносным циником. А цитата из фильма «Жизнь это как коробка конфет» полностью противоположна мысли из романа «Быть идиотом это не коробка конфет».
  • Кинокомпания «Warner Bros.» отказалась от прав на этот фильм в 1988 году, посчитав, что реализация этого проекта будет коммерчески невыгодна после выхода фильма «Человек дождя».
  • «Оторванные» ноги Гари Синиза при съёмке были обёрнуты специальным синим полотном, что позволило их потом «стереть» из кадра посредством компьютерных спецэффектов. Тем не менее в некоторых эпизодах заметно как лейтенант Ден слегка опирается на отсутствующие конечности.
  • Оригинальный акцент Форреста Гампа Том Хэнкс подсмотрел у Майкла Коннера Хамфриса, игравшего молодого Гампа и действительно в жизни говорившего с таким акцентом.
  • Почти все реплики давно умершего Джона Леннона для этого фильма были взяты из его песни «Imagine».
  • Сцена, в которой Форрест Гамп получает Медаль Почёта, была смонтирована из архивной плёнки награждения рядового 1-го класса Сэмми Л. Дэвиса (19 ноября 1968 года), который имел ранения спины и ягодиц в результате «дружественного огня».
  • При каждой «смене возраста» Форреста одна вещь остаётся неизменной — в первой сцене в «новом» возрасте Форрест появляется в синей рубашке.
  • Фамилия Дженни — Каррен — фигурирует только один раз в фильме: на конверте, посланном Форресту во Вьетнам.
  • Салли Филд, игравшая маму Форреста, всего на 10 лет старше Тома Хэнкса.
  • Салли Филд ранее уже снималась вместе с Томом Хэнксом - это произошло на съемочной площадке картины «Изюминка» 1988г. В этом фильме герой Хэнкса ухаживает и даже делает предложение героине Салли.
Свернуть
"Скриншоты"
Изображение
Изображение
Изображение
Изображение
Изображение
Изображение
Свернуть


Последний раз редактировалось GORPOZ 2011-01-07 16:24, всего редактировалось 1 раз.
Не в сети
Профиль  
 Добавлено: 2011-01-07 15:43 (спустя 16 часов)
Аватара пользователя
Стаж: 8 лет 6 месяцев
Возраст: 38
Сообщений: 1674
Спасибок: 16600
Лайков: 5
GORPOZ
Очень нужно полное MediaInfo данного файла. Добавьте пожалуйста.
Не в сети
Профиль  
 Добавлено: 2011-01-07 16:26 (спустя 42 минуты)
Аватара пользователя
Стаж: 7 лет 11 месяцев
Сообщений: 100
Спасибок: 1357
Сделано :)
Не в сети
Профиль  
 Добавлено: 2011-01-07 16:29 (спустя 2 минуты)
Аватара пользователя
Стаж: 8 лет 6 месяцев
Возраст: 38
Сообщений: 1674
Спасибок: 16600
Лайков: 5

GORPOZ:

Сделано :)
Спасибо. И за релиз тоже. :)
Не в сети
Профиль  
 Добавлено: 2011-01-21 18:56 (спустя 14 дней)
Аватара пользователя
Стаж: 8 лет 1 месяц
Сообщений: 10883
Спасибок: 4351
Лайков: 6
Ребят, у кого сколько процентов? Никому не надо, чтобы я со Стрима раздал? В ЛС.
Не в сети
Профиль  
 Добавлено: 2011-01-30 22:36 (спустя 9 дней)
Стаж: 8 лет 10 месяцев
Сообщений: 10
Подкинте скорости пожалуйста )) я на дом.ру
Не в сети
Профиль  
Начать новую темуОтветить на тему  [ Сообщений: 6 ] 
Вы не можете начинать темы
Вы не можете отвечать на сообщения
Вы не можете редактировать свои сообщения
Вы не можете удалять свои сообщения