Правила форума

  • В этом разделе создание новых тем Запрещено.
  • Для создания новых тем пользуйтесь Корневым разделом DVD и HD фильмы.
Начать новую темуОтветить на тему  [ Сообщений: 4 ] 
Торрент файл
Размер: 14.46 GB • Зарегистрирован: 5 лет 3 месяца • Статус: Проверено
Скачан: 149 раз • Желающих скачать: 0 • Поблагодарили: 38 раз
 Раздают: 0  |  0 KB/s  ]   Качают: 0  |  0 KB/s  ] 
 Полного источника не было 11 месяцев 
Сообщения
 Добавлено: 2011-08-19 18:12
Модератор релиз-группы
Аватара пользователя
Стаж: 9 лет 1 месяц
Возраст: 97
Сообщений: 11659
Спасибок: 6530
Лайков: 269
Изображение Изображение
Форсаж 5 / Fast Five

Изображение


Год выпуска: 2011
Страна: сша
Жанр: боевик, триллер, драма, криминал
Продолжительность: 02:10:21
Перевод: Профессиональный (дубляж)
Роли дублировали:Сергей Чонишвили,Алексей Мясников,Полина Щербакова,Александр Носков,Пётр Иващенко
Оригинальная звуковая дорожка(отдельным файлом)

Режиссёр: Джастин Лин / Justin Lin
В ролях: Вин Дизель, Пол Уокер, Джордана Брюстер, Тайриз Гибсон, Лудакрис, Эльза Патаки, Галь Гадот, Тего Калдерон, Дон Омар, Мэтт Шульце
Описание: Бывший полицейский Брайан О`Коннер вместе с бывалым лихачом Домиником Торетто совсем немного увлеклись жизнью вне закона. После того, как Брайан и Миа Торетто освободили Доминика, они не рискуют долго задерживаться на одном месте, так как являются желанной целью порядком недовольных копов.

Изображение
Качество: BDRemux
Формат: mkv
Видео кодек: MPEG-4 (AVC)
Аудио кодек: AC3
Видео: MPEG-4 AVC Video, ~14.0 Mbps, 1080p, 23,976 fps, 16:9
Аудио #1: Russian, AC3 Audio, 5.1, 48 kHz, 384 kbps [Профессиональный (дубляж)]
Аудио #2: English, DTS Audio, 5.1 , 48 kHz , 1 510 Kbps [Оригинальная звуковая дорожка(отдельным файлом)]

Доп. инфо : AC3 дорожка сделана специально для тех ,кто смотрит на встроенных в ТВ плеерах
Проверено на плеере телевизора LG


скриншоты сравнения Rip VS Source
Rip_ _ _ _ _ _ _ _ _ _ _ _ _Source
Изображение - Изображение

Изображение - Изображение

Изображение - Изображение

Изображение - Изображение
Свернуть

Mi
Format : Matroska
Format version : Version 2
File size : 14.5 GiB
Duration : 2h 10mn
Overall bit rate : 15.9 Mbps
Encoded date : UTC 2011-08-19 13:43:16
Writing application : mkvmerge v4.8.0 ('I Got The...') сборка от May 24 2011 03:12:58
Writing library : libebml v1.2.0 + libmatroska v1.1.0

Video
ID : 1
Format : AVC
Format/Info : Advanced Video Codec
Format profile : High@L4.0
Format settings, CABAC : Yes
Format settings, ReFrames : 3 frames
Format settings, GOP : M=4, N=48
Codec ID : V_MPEG4/ISO/AVC
Duration : 2h 10mn
Bit rate mode : Variable
Bit rate : 14.0 Mbps
Maximum bit rate : 20.0 Mbps
Width : 1 920 pixels
Height : 1 080 pixels
Display aspect ratio : 16:9
Frame rate : 23.976 fps
Color space : YUV
Chroma subsampling : 4:2:0
Bit depth : 8 bits
Scan type : Progressive
Bits/(Pixel*Frame) : 0.282
Stream size : 12.4 GiB (86%)
Writing library : x264 core 93 r1542M 5b86182
Encoding settings : cabac=1 / ref=4 / deblock=1:0:0 / analyse=0x3:0x12 / me=hex / subme=2 / psy=1 / psy_rd=0.00:0.00 / mixed_ref=0 / me_range=16 / chroma_me=1 / trellis=0 / 8x8dct=1 / cqm=0 / deadzone=21,11 / fast_pskip=1 / chroma_qp_offset=0 / threads=3 / sliced_threads=0 / nr=0 / decimate=1 / interlaced=0 / constrained_intra=0 / bframes=3 / b_pyramid=1 / b_adapt=1 / b_bias=0 / direct=1 / wpredb=1 / wpredp=0 / keyint=48 / keyint_min=8 / scenecut=40 / intra_refresh=0 / rc_lookahead=48 / rc=abr / mbtree=0 / bitrate=14009 / ratetol=1.0 / qcomp=0.50 / qpmin=10 / qpmax=51 / qpstep=4 / vbv_maxrate=20000 / vbv_bufsize=25000 / ip_ratio=1.10 / pb_ratio=1.10 / aq=1:1.00 / nal_hrd=vbr
Language : English

Audio #1
ID : 2
Format : AC-3
Format/Info : Audio Coding 3
Mode extension : CM (complete main)
Codec ID : A_AC3
Duration : 2h 10mn
Bit rate mode : Constant
Bit rate : 384 Kbps
Channel(s) : 6 channels
Channel positions : Front: L C R, Side: L R, LFE
Sampling rate : 48.0 KHz
Bit depth : 16 bits
Compression mode : Lossy
Stream size : 358 MiB (2%)
Title : Dub
Language : Russian

Audio #2
ID : 3
Format : DTS
Format/Info : Digital Theater Systems
Codec ID : A_DTS
Duration : 2h 10mn
Bit rate mode : Constant
Bit rate : 1 510 Kbps
Channel(s) : 6 channels
Channel positions : Front: L C R, Side: L R, LFE
Sampling rate : 48.0 KHz
Bit depth : 24 bits
Compression mode : Lossy
Stream size : 1.37 GiB (10%)
Title : original
Language : English

Свернуть
_________________
Изображение
Не в сети
Профиль  
 Добавлено: 2011-08-20 02:35 (спустя 8 часов)
Аватара пользователя
Стаж: 8 лет 10 месяцев
Сообщений: 548
Спасибок: 153
Эх побольше бы скорость ((
Не в сети
Профиль  
 Добавлено: 2011-08-20 10:41 (спустя 8 часов)
Аватара пользователя
Стаж: 8 лет 10 месяцев
Сообщений: 548
Спасибок: 153
Встаньте на раздачу((((
Не в сети
Профиль  
 Добавлено: 2012-01-21 15:37 (спустя 5 месяцев 1 день)
Аватара пользователя
Стаж: 8 лет 2 месяца
Сообщений: 70
Спасибок: 41

Артурыч:

AC3 дорожка сделана специально для тех ,кто смотрит на встроенных в ТВ плеерах
за это отдельное спасибо :ya_hoo_oo:
почаще бы :-[
Не в сети
Профиль  
Начать новую темуОтветить на тему  [ Сообщений: 4 ] 
Вы не можете начинать темы
Вы не можете отвечать на сообщения
Вы не можете редактировать свои сообщения
Вы не можете удалять свои сообщения