Правила форума

  • В этом разделе создание новых тем Запрещено.
  • Для создания новых тем пользуйтесь Корневым разделом DVD и HD фильмы.
Начать новую темуОтветить на тему  [ Сообщений: 7 ] 
Торрент файл
Размер: 21.62 GB • Зарегистрирован: 5 лет 3 месяца • Статус: Проверено
Скачан: 289 раз • Желающих скачать: 0 • Поблагодарили: 42 раза
 Раздают: 0  |  0 KB/s  ]   Качают: 0  |  0 KB/s  ] 
 Полного источника не было 3 года 2 месяца 
Сообщения
 Добавлено: 2011-08-19 01:58
Модератор релиз-группы
Аватара пользователя
Стаж: 9 лет 1 месяц
Возраст: 97
Сообщений: 11659
Спасибок: 6532
Лайков: 269
ИзображениеИзображение

Форсаж 5 / Fast Five

Изображение


Год выпуска: 2011
Страна: сша
Жанр: боевик, триллер, драма, криминал
Продолжительность: 02:10:21
Перевод: Профессиональный (дубляж)
Оригинальная звуковая дорожка

Режиссёр: Джастин Лин / Justin Lin
В ролях: Вин Дизель, Пол Уокер, Джордана Брюстер, Тайриз Гибсон, Лудакрис, Эльза Патаки, Галь Гадот, Тего Калдерон, Дон Омар, Мэтт Шульце
Описание: Бывший полицейский Брайан О`Коннер вместе с бывалым лихачом Домиником Торетто совсем немного увлеклись жизнью вне закона. После того, как Брайан и Миа Торетто освободили Доминика, они не рискуют долго задерживаться на одном месте, так как являются желанной целью порядком недовольных копов.

Изображение
Качество: BDRemux
Формат: mkv
Видео кодек: MPEG-4 (AVC)
Аудио кодек: DTS
Видео: MPEG-4 AVC Video, ~23.7 Mbps, 1080p, 23,976 fps, 16:9
Аудио #1: Russian, DTS Audio, 5.1, 48 kHz, 768 kbps [Профессиональный (дубляж)]
Аудио #2: English, DTS Audio, 5.1 , 48 kHz , 1 510 Kbps [Оригинальная звуковая дорожка]
Скриншоты
Изображение

Изображение

Изображение

Изображение

Изображение
Свернуть

Mi
Format : Matroska
Format version : Version 2
File size : 21.6 GiB
Duration : 2h 10mn
Overall bit rate : 23.7 Mbps
Encoded date : UTC 2011-08-18 22:34:57
Writing application : mkvmerge v4.8.0 ('I Got The...') сборка от May 24 2011 03:12:58
Writing library : libebml v1.2.0 + libmatroska v1.1.0

Video
ID : 1
Format : AVC
Format/Info : Advanced Video Codec
Format profile : High@L4.1
Format settings, CABAC : Yes
Format settings, ReFrames : 4 frames
Codec ID : V_MPEG4/ISO/AVC
Duration : 2h 10mn
Bit rate mode : Variable
Bit rate : 21.0 Mbps
Maximum bit rate : 30.0 Mbps
Width : 1 920 pixels
Height : 1 080 pixels
Display aspect ratio : 16:9
Frame rate : 23.976 fps
Color space : YUV
Chroma subsampling : 4:2:0
Bit depth : 8 bits
Scan type : Progressive
Bits/(Pixel*Frame) : 0.423
Stream size : 19.1 GiB (88%)
Language : English
Color primaries : BT.709-5, BT.1361, IEC 61966-2-4, SMPTE RP177
Transfer characteristics : BT.709-5, BT.1361
Matrix coefficients : BT.709-5, BT.1361, IEC 61966-2-4 709, SMPTE RP177

Audio #1
ID : 2
Format : DTS
Format/Info : Digital Theater Systems
Codec ID : A_DTS
Duration : 2h 10mn
Bit rate mode : Constant
Bit rate : 755 Kbps
Channel(s) : 6 channels
Channel positions : Front: L C R, Side: L R, LFE
Sampling rate : 48.0 KHz
Bit depth : 24 bits
Compression mode : Lossy
Stream size : 703 MiB (3%)
Title : Dubbed
Language : Russian

Audio #2
ID : 3
Format : DTS
Format/Info : Digital Theater Systems
Codec ID : A_DTS
Duration : 2h 10mn
Bit rate mode : Constant
Bit rate : 1 510 Kbps
Channel(s) : 6 channels
Channel positions : Front: L C R, Side: L R, LFE
Sampling rate : 48.0 KHz
Bit depth : 24 bits
Compression mode : Lossy
Stream size : 1.37 GiB (6%)
Language : English
Свернуть


Последний раз редактировалось Артурыч 2011-08-19 20:10, всего редактировалось 1 раз.
Не в сети
Профиль  
 Добавлено: 2011-08-19 09:12 (спустя 7 часов)
Аватара пользователя
Стаж: 8 лет 9 месяцев
Сообщений: 33
Спасибок: 672
Кто знает, в 3D этот фильм будет?
Не в сети
Профиль  
 Добавлено: 2011-08-19 09:13 (спустя 1 минута)
Top-seeder
Аватара пользователя
Стаж: 9 лет 1 месяц
Возраст: 26
Сообщений: 245
Спасибок: 3339
Лайков: 1
А он разве вообще был в ТриДэ ?
P.S. Жду BDRip 1080p=)
_________________
Cкрытый текст
ИзображениеИзображение
Свернуть
Cкрытый текст
Изображение
Свернуть
Last.FM
Изображение
Свернуть
Не в сети
Профиль  
 Добавлено: 2011-08-19 09:52 (спустя 39 минут)
Аватара пользователя
Стаж: 8 лет 10 месяцев
Сообщений: 548
Спасибок: 153
Он же вроде без 3Д был ?))
Не в сети
Профиль  
 Добавлено: 2011-08-25 03:07 (спустя 5 дней)
Аватара пользователя
Стаж: 8 лет
Сообщений: 140
Спасибок: 51
спасибо
_________________
Изображение 6 мB/s Изображение 600 kB/s
Изображение
Не в сети
Профиль  
 Добавлено: 2011-08-31 11:05 (спустя 6 дней)
Аватара пользователя
Стаж: 7 лет 4 месяца
Возраст: 25
Сообщений: 13
Лайков: 1
Достойное продолжение истории Брайана О`Коннера и Доминика Торетто. СМОТРЕТЬ ВСЕМ!!!
Не в сети
Профиль  
 Добавлено: 2011-12-10 20:32 (спустя 3 месяца 10 дней)
Пользователь забанен
Стаж: 7 лет 6 месяцев
Сообщений: 139
Лайков: 1
Со звуком проблема какая-то в PowerDVD 10, звука нет вообще, в других проигрывателях есть, но очень тихий... может у меня руки кривые, подскажите возможно исправить?
Не в сети
Профиль  
Начать новую темуОтветить на тему  [ Сообщений: 7 ] 
Вы не можете начинать темы
Вы не можете отвечать на сообщения
Вы не можете редактировать свои сообщения
Вы не можете удалять свои сообщения