Правила форума

  • В этом разделе создание новых тем Запрещено.
  • Для создания новых тем пользуйтесь Корневым разделом DVD и HD фильмы.
Начать новую темуОтветить на тему  [ Сообщений: 8 ] 
Торрент файл
Размер: 3.98 GB • Зарегистрирован: 5 лет 3 месяца • Статус: Проверено
Скачан: 639 раз • Желающих скачать: 0 • Поблагодарили: 90 раз
 Раздают: 1  |  0 KB/s  ]   Качают: 0  |  0 KB/s  ] 
Сообщения
 Добавлено: 2011-08-19 19:23
Модератор
Аватара пользователя
Стаж: 8 лет 1 месяц
Возраст: 20
Сообщений: 32130
Спасибок: 98569
Лайков: 80
Изображение

Форсаж 5 / Fast Five


Год выпуска: 2011
Страна: США
Слоган: «Всё решает скорость, всё решает команда»

Жанр: боевик, триллер, драма, криминал
Продолжительность: 02:10:21
Перевод: Профессиональный (полное дублирование) [лицензия]

Режиссер: Джастин Лин / Justin Lin
В ролях: Вин Дизель, Пол Уокер, Джордана Брюстер, Тайриз Гибсон, Лудакрис, Эльза Патаки, Галь Гадот, Тего Калдерон, Дон Омар, Мэтт Шульце
Бюджет: $125 000 000
Сборы в США: $209 837 675
Сборы в России: $29 111 471
Сборы в мире: $606 180 490

Мировая премьера: 15 апреля 2011
Релиз на DVD: 25 августа 2011, «Двадцатый Век Фокс СНГ»
Релиз на Blu-ray: 25 августа 2011, «Двадцатый Век Фокс СНГ»
Описание: Бывший полицейский Брайан О`Коннер вместе с бывалым лихачом Домиником Торетто совсем немного увлеклись жизнью вне закона. После того, как Брайан и Миа Торетто освободили Доминика, они не рискуют долго задерживаться на одном месте, так как являются желанной целью порядком недовольных копов.
Изображение
MPAA: Изображение - Детям до 13 лет просмотр не желателен
Качество: BDRip 720p R5
Формат: AVI

Размер кадра: 1280x544 (2.35:1), 23.976 fps
Аудио #1: AC-3, 48.0 KHz, 6 ch, 448 Kbps, CBR [Russian]
Аудио #2: AC-3, 48.0 KHz, 6 ch, 448 Kbps, CBR [Ukraine]
Аудио #3: AC-3, 48.0 KHz, 6 ch, 384 Kbps, CBR [English]
Изображение
MediaInfo
Общее
Полное имя                       : C:\Users\hant\Videos\Фильмы\HD\Fast Five.avi
Формат                           : AVI
Формат/Информация                : Audio Video Interleave
Профиль формата                  : OpenDML
Настройки формата                : rec
Размер файла                     : 3,98 Гбайт
Продолжительность                : 2 ч. 10 м.
Общий поток                      : 4374 Кбит/сек
Программа кодирования            : AVI-Mux GUI 1.17.8, Aug 30 2008  12:36:58

Видео
Идентификатор                    : 0
Формат                           : MPEG-4 Visual
Профиль формата                  : Advanced Simple@L5
Параметр BVOP формата            : 1
Параметр QPel формата            : Нет
Параметр GMC формата             : Без точки перехода
Параметр матрицы формата         : Выборочная
Режим смешивания                 : Сжатый битовый поток
Идентификатор кодека             : XVID
Идентификатор кодека/Подсказка   : XviD
Продолжительность                : 2 ч. 10 м.
Битрейт                          : 3084 Кбит/сек
Ширина                           : 1280 пикс.
Высота                           : 544 пикс.
Соотношение сторон               : 2,35:1
Частота кадров                   : 23,976 кадр/сек
Цветовое пространство            : YUV
Подвыборка цветности             : 4:2:0
Битовая глубина                  : 8 бит
Тип развёртки                    : Прогрессивная
Метод сжатия                     : С потерями
Бит/(Пиксели*Кадры)              : 0.185
Размер потока                    : 2,81 Гбайт (71%)
Библиотека кодирования           : XviD 1.2.1 (UTC 2008-12-04)

Аудио #1
Идентификатор                    : 1
Формат                           : AC-3
Формат/Информация                : Audio Coding 3
Расширение режима                : CM (complete main)
Идентификатор кодека             : 2000
Продолжительность                : 2 ч. 10 м.
Вид битрейта                     : Постоянный
Битрейт                          : 448 Кбит/сек
Каналы                           : 6 каналов
Расположение каналов             : Front: L C R, Side: L R, LFE
Частота                          : 48,0 КГц
Битовая глубина                  : 16 бит
Метод сжатия                     : С потерями
Размер потока                    : 418 Мбайт (10%)
Выравнивание                     : Соединение по промежуткам
Продолжительность промежутка     : 64  мс. (1,53 видеокадра)
Время предзагрузки промежутка    : 192 ms

Аудио #2
Идентификатор                    : 2
Формат                           : AC-3
Формат/Информация                : Audio Coding 3
Расширение режима                : CM (complete main)
Идентификатор кодека             : 2000
Продолжительность                : 2 ч. 10 м.
Вид битрейта                     : Постоянный
Битрейт                          : 384 Кбит/сек
Каналы                           : 6 каналов
Расположение каналов             : Front: L C R, Side: L R, LFE
Частота                          : 48,0 КГц
Битовая глубина                  : 16 бит
Метод сжатия                     : С потерями
Размер потока                    : 358 Мбайт (9%)
Выравнивание                     : Соединение по промежуткам
Продолжительность промежутка     : 64  мс. (1,53 видеокадра)
Время предзагрузки промежутка    : 192 ms

Аудио #3
Идентификатор                    : 3
Формат                           : AC-3
Формат/Информация                : Audio Coding 3
Расширение режима                : CM (complete main)
Идентификатор кодека             : 2000
Продолжительность                : 2 ч. 10 м.
Вид битрейта                     : Постоянный
Битрейт                          : 448 Кбит/сек
Каналы                           : 6 каналов
Расположение каналов             : Front: L C R, Side: L R, LFE
Частота                          : 48,0 КГц
Битовая глубина                  : 16 бит
Метод сжатия                     : С потерями
Размер потока                    : 418 Мбайт (10%)
Выравнивание                     : Соединение по промежуткам
Продолжительность промежутка     : 64  мс. (1,53 видеокадра)
Время предзагрузки промежутка    : 192 ms
Свернуть
Знаете ли Вы, что...
  • Основные съемки фильма проходили в Пуэрто-Рико.
  • После финальных титров можно увидеть Хоббса, сидящего в кабинете в тот момент, когда Моника Фуэнтес (тайный агент из «Двойного Форсажа») приносит ему папку о последнем уголовном деле. Когда Хоббс её открывает, внутри прикреплена фотография Летти, которая по идее погибла в четвёртой части, но принесённое дело говорит совершенно об обратном.
  • Это первый фильм франшизы, который можно увидеть в формате IMAX.
  • Во время погони с сейфом, в автомобиль Брайна врезается мотоциклист и падает на лобовое стекло, от чего оно трескается. В следующий момент показывают это же стекло, но уже с дырками от пуль, а еще через момент - уже полностью целое стекло.
  • На протяжении всего фильма его герои пьют пиво Brahma.
  • Бронированный внедорожник команды Хоббса называется Knight XV.
Свернуть
Скриншоты
Изображение

Изображение

Изображение

Изображение
Свернуть


Последний раз редактировалось Костян236 2011-08-19 19:24, всего редактировалось 1 раз.
Не в сети
Профиль  
 Добавлено: 2011-08-19 19:23 (спустя 25 секунд)
Руководитель релиз-группы
Аватара пользователя
Стаж: 7 лет 2 месяца
Возраст: 4
Сообщений: 5213
Спасибок: 19350
Лайков: 2312
Костян236 :co_ol:
_________________
Изображение

Изображение
Не в сети
Профиль  
 Добавлено: 2011-08-20 12:33 (спустя 17 часов)
Аватара пользователя
Стаж: 9 лет
Сообщений: 539
Спасибок: 1518
Субтитры будут?
Не в сети
Профиль  
 Добавлено: 2011-08-20 14:36 (спустя 2 часа 3 минуты)
Стаж: 8 лет 11 месяцев
Сообщений: 7
Качаю)))
Автору сенкс :D

спс нажал :D
Не в сети
Профиль  
 Добавлено: 2011-08-23 13:30 (спустя 2 дня 22 часа)
Аватара пользователя
Стаж: 8 лет 10 месяцев
Возраст: 26
Сообщений: 31
надеюсь,что их нет! Автору спс, давно ждал лицензии :-D :-D :-D
Не в сети
Профиль  
 Добавлено: 2013-05-24 22:31 (спустя 1 год 9 месяцев)
Стаж: 5 лет 6 месяцев
Сообщений: 3
фильм ниче так
Не в сети
Профиль  
 Добавлено: 2013-05-25 21:16 (спустя 22 часа)
EMRG
Аватара пользователя
Стаж: 8 лет 10 месяцев
Сообщений: 696
Спасибок: 254
Лайков: 39
Скорости
Не в сети
Профиль  
 Добавлено: 2013-05-25 22:20 (спустя 1 час 3 минуты)
Аватара пользователя
Стаж: 8 лет 3 месяца
Возраст: 36
Сообщений: 94
Спасибок: 20
Лайков: 2
ай яй яй, а в ролях "Скалу" Дуэйна и не указали, он бы обиделся если б увидел :'(
:-D
а вообще фильмец зачётный, по крайней мере лучше чем 2-я и 4-я части, но хуже чем 1-я и 3-я
Не в сети
Профиль  
Начать новую темуОтветить на тему  [ Сообщений: 8 ] 
Вы не можете начинать темы
Вы не можете отвечать на сообщения
Вы не можете редактировать свои сообщения
Вы не можете удалять свои сообщения