Правила форума

  • В этом разделе создание новых тем Запрещено.
  • Для создания новых тем пользуйтесь Корневым разделом DVD и HD фильмы.
Начать новую темуОтветить на тему  [ Сообщений: 2 ] 
Торрент файл
Размер: 7.75 GB • Зарегистрирован: 5 лет 3 месяца • Статус: Проверено
Скачан: 689 раз • Желающих скачать: 0 • Поблагодарили: 122 раза
 Раздают: 0  |  0 KB/s  ]   Качают: 0  |  0 KB/s  ] 
 Полного источника не было 4 часа 
Сообщения
 Добавлено: 2011-08-23 09:07
Книголюб
Аватара пользователя
Стаж: 7 лет 2 месяца
Сообщений: 2823
Спасибок: 48829
Лайков: 73
Форсаж 5 / Fast Five

Изображение


Год выпуска: 2011
Страна: США
Слоган: «Всё решает скорость, всё решает команда»
Жанр: боевик, триллер, драма, криминал
Продолжительность: 01:59:02
Перевод: Профессиональный (дубляж)

Режиссёр: Джастин Лин
В ролях: Пол Уокер, Вин Дизель, Дуэйн Джонсон, Тайриз Гибсон, Тего Калдерон, Лудакрис, Дон Омар, Джордана Брюстер, Мэтт Шульце, Санг Кенг, Гал Гадот
Описание: Бывший полицейский Брайан О`Коннер вместе с бывалым лихачом Домиником Торетто совсем немного увлеклись жизнью вне закона. После того, как Брайан и Миа Торетто освободили Доминика, они не рискуют долго задерживаться на одном месте, так как являются желанной целью порядком недовольных копов.
Рейтинг MPAA: Рейтинг PG-13 (Дети до 13 лет допускаются на фильм только с родителями)
Мировая премьера: 15 апреля 2011
Премьера в России: 28 апреля 2011, «UPI»
Бюджет: $125 000 000
Изображение 7.831 28 320

Качество: BDRip 1080p
Формат: MKV
Видео кодек: H.264
Аудио кодек: AC3 (Dolby Digital)
Видео: 7582 kb/s, 1920x816, 23.976 fps
Аудио #1: AC3, 448 kb/s (6Ch) 48000Hz Дубляж
Аудио #2: AC3, 448 kb/s (6Ch)-Оригинал

MediaInfo
General
Unique ID : 192388904808402859233630679809556140574 (0x90BCC159A04CCEFC8580F8246E7ED21E)
Complete name : I:\1.08\Fast Five.mkv
Format : Matroska
File size : 7.75 GiB
Duration : 2h 10mn
Overall bit rate : 8 511 Kbps
Movie name : Форсаж 5 / Fast Five (2011) BDRip 1080p от RG Neofilm
Encoded date : UTC 2011-08-21 05:20:22
Writing application : mkvmerge v4.9.1 ('Ich will') сборка от Jul 11 2011 23:53:15
Writing library : libebml v1.2.1 + libmatroska v1.1.1

Video
ID : 1
Format : AVC
Format/Info : Advanced Video Codec
Format profile : High@L4.1
Format settings, CABAC : Yes
Format settings, ReFrames : 5 frames
Codec ID : V_MPEG4/ISO/AVC
Duration : 2h 10mn
Bit rate : 7 582 Kbps
Width : 1 920 pixels
Height : 816 pixels
Display aspect ratio : 2.35:1
Frame rate : 23.976 fps
Color space : YUV
Chroma subsampling : 4:2:0
Bit depth : 8 bits
Scan type : Progressive
Bits/(Pixel*Frame) : 0.202
Stream size : 6.78 GiB (87%)
Title : Форсаж 5 / Fast Five (2011) BDRip 1080p
Writing library : x264 core 115 r1995 c1e60b9
Encoding settings : cabac=1 / ref=5 / deblock=1:-3:-3 / analyse=0x3:0x113 / me=umh / subme=10 / psy=1 / psy_rd=1.00:0.00 / mixed_ref=1 / me_range=48 / chroma_me=1 / trellis=2 / 8x8dct=1 / cqm=0 / deadzone=21,11 / fast_pskip=0 / chroma_qp_offset=-2 / threads=6 / sliced_threads=0 / nr=0 / decimate=0 / interlaced=0 / bluray_compat=0 / constrained_intra=0 / bframes=5 / b_pyramid=2 / b_adapt=2 / b_bias=0 / direct=3 / weightb=1 / open_gop=0 / weightp=2 / keyint=250 / keyint_min=23 / scenecut=40 / intra_refresh=0 / rc_lookahead=40 / rc=2pass / mbtree=1 / bitrate=7582 / ratetol=1.0 / qcomp=0.60 / qpmin=10 / qpmax=51 / qpstep=4 / cplxblur=20.0 / qblur=0.5 / ip_ratio=1.40 / aq=1:1.00
Language : English

Audio #1
ID : 2
Format : AC-3
Format/Info : Audio Coding 3
Mode extension : CM (complete main)
Codec ID : A_AC3
Duration : 2h 10mn
Bit rate mode : Constant
Bit rate : 448 Kbps
Channel(s) : 6 channels
Channel positions : Front: L C R, Side: L R, LFE
Sampling rate : 48.0 KHz
Bit depth : 16 bits
Compression mode : Lossy
Stream size : 418 MiB (5%)
Title : Дублированный
Language : Russian

Audio #2
ID : 3
Format : AC-3
Format/Info : Audio Coding 3
Mode extension : CM (complete main)
Codec ID : A_AC3
Duration : 2h 10mn
Bit rate mode : Constant
Bit rate : 448 Kbps
Channel(s) : 6 channels
Channel positions : Front: L C R, Side: L R, LFE
Sampling rate : 48.0 KHz
Bit depth : 16 bits
Compression mode : Lossy
Stream size : 418 MiB (5%)
Title : Оригинал
Language : English

Text #1
ID : 4
Format : PGS
Codec ID : S_HDMV/PGS
Codec ID/Info : The same subtitle format used on BDs/HD-DVDs
Title : Ru.Forced
Language : Russian

Text #2
ID : 5
Format : PGS
Codec ID : S_HDMV/PGS
Codec ID/Info : The same subtitle format used on BDs/HD-DVDs
Title : Eng.Forced
Language : English

Text #3
ID : 6
Format : PGS
Codec ID : S_HDMV/PGS
Codec ID/Info : The same subtitle format used on BDs/HD-DVDs
Title : Eng.Full
Language : English

Menu
00:00:00.000 : :Chapter 1
00:07:45.715 : :Chapter 2
00:17:29.465 : :Chapter 3
00:23:01.838 : :Chapter 4
00:28:21.574 : :Chapter 5
00:34:55.635 : :Chapter 6
00:40:46.318 : :Chapter 7
00:48:41.585 : :Chapter 8
00:55:20.317 : :Chapter 9
01:03:09.952 : :Chapter 10
01:10:44.657 : :Chapter 11
01:18:25.867 : :Chapter 12
01:22:36.201 : :Chapter 13
01:27:58.731 : :Chapter 14
01:31:53.424 : :Chapter 15
01:39:13.322 : :Chapter 16
01:47:00.747 : :Chapter 17
01:54:50.133 : :Chapter 18
01:59:15.231 : :Chapter 19
02:03:24.396 : :Chapter 20
02:10:21.021 : :Chapter 21
Свернуть


Скриншоты
Изображение
Изображение
Изображение
Изображение
Свернуть
Не в сети
Профиль  
 Добавлено: 2014-08-08 13:47 (спустя 2 года 11 месяцев)
Стаж: 7 лет 11 месяцев
Сообщений: 19
[quote][/quote]
Не в сети
Профиль  
Начать новую темуОтветить на тему  [ Сообщений: 2 ] 
Вы не можете начинать темы
Вы не можете отвечать на сообщения
Вы не можете редактировать свои сообщения
Вы не можете удалять свои сообщения