Правила форума

  • В этом разделе создание новых тем Запрещено.
  • Для создания новых тем пользуйтесь Корневым разделом DVD и HD фильмы.
Начать новую темуОтветить на тему  [ 1 сообщение ] 
Торрент файл
Размер: 15.56 GB • Зарегистрирован: 1 год 4 месяца • Статус: Проверено
Скачан: 191 раз • Желающих скачать: 0 • Поблагодарили: 39 раз
 Раздают: 3  |  324 KB/s  ]   Качают: 0  |  0 KB/s  ] 
Сообщения
 Добавлено: 2015-08-01 09:08
DVD Release Group
Аватара пользователя
Стаж: 7 лет 1 месяц
Сообщений: 3570
Спасибок: 247893
Лайков: 1021
Форсаж 7

Furious 7


Изображение


Год выпуска: 2015
Страна: США
Жанр: Боевик, триллер, криминал
Продолжительность: 02:19:55
Перевод: Профессиональный (полное дублирование)
Примечание: EXTENDED - Расширенная версия длиннее на 2 минуты! Полный лицензионный дублированный перевод!
Режиссер: Джеймс Ван
В ролях: Вин Дизель, Пол Уокер, Дуэйн Джонсон, Джейсон Стэйтем, Мишель Родригес, Джордана Брюстер, Тайриз Гибсон, Лудакрис, Эльза Патаки, Лукас Блэк
Описание: Они покорили Токио и Рио, Лос-Анджелес и Лондон. Но мир больше не играет по их правилам. Зной арабских пустынь, неприлично высокие небоскребы, миллионы долларов на колесах и очень, очень знаменитый злодей. Скорость не знает границ.
ИзображениеИзображение
Качество: BDRip 1080p
Формат: MKV
Видео кодек: H.264
Аудио кодек: AC3, DTS
Видео: 1920x800 23.98fps 13,7Мбит/сек
Аудио:
Аудио Rus: AC3 48kHz 6ch 448kbps
Аудио Eng: DTS 48kHz 6ch 1510kbps
"MediaInfo"
Формат : Matroska
Версия формата : Version 2
Размер файла : 15,6 Гбайт
Продолжительность : 2 ч. 19 м.
Общий поток : 15,9 Мбит/сек
Название фильма : F2 @ VietHD
Дата кодирования : UTC 2015-07-31 22:16:20
Программа кодирования : mkvmerge v8.2.0 ('World of Adventure') 64bit
Библиотека кодирования : libebml v1.3.1 + libmatroska v1.4.2
Attachements : Cover.png
DURATION : 02:10:32.991000000
NUMBER_OF_FRAMES : 1669
NUMBER_OF_BYTES : 48591
_STATISTICS_WRITING_APP : mkvmerge v8.2.0 ('World of Adventure') 64bit
_STATISTICS_WRITING_DATE_UTC : 2015-07-31 22:16:20
_STATISTICS_TAGS : BPS DURATION NUMBER_OF_FRAMES NUMBER_OF_BYTES

Видео
Идентификатор : 1
Формат : AVC
Формат/Информация : Advanced Video Codec
Профиль формата : High@L4.1
Параметр CABAC формата : Да
Параметр ReFrames формата : 5 кадров
Идентификатор кодека : V_MPEG4/ISO/AVC
Продолжительность : 2 ч. 19 м.
Битрейт : 13,7 Мбит/сек
Ширина : 1920 пикселей
Высота : 800 пикселей
Соотношение сторон : 2,40:1
Режим частоты кадров : Постоянный
Частота кадров : 23,976 кадра/сек
Цветовое пространство : YUV
Субдискретизация насыщенности : 4:2:0
Битовая глубина : 8 бит
Тип развёртки : Прогрессивная
Бит/(Пиксели*Кадры) : 0.371
Размер потока : 13,3 Гбайт (86%)
Заголовок : TayTO ~ Release for HDBits
Библиотека кодирования : x264 core 142 r2431+42 c69a006 tMod [8-bit@all X86_64]
Настройки программы : cabac=1 / ref=5 / deblock=1:-3:-3 / analyse=0x3:0x133 / me=tesa / subme=11 / psy=1 / fade_compensate=0.00 / psy_rd=1.05:0.00 / mixed_ref=1 / me_range=32 / chroma_me=1 / trellis=2 / 8x8dct=1 / cqm=0 / deadzone=21,11 / fast_pskip=0 / chroma_qp_offset=-2 / threads=12 / lookahead_threads=2 / sliced_threads=0 / nr=0 / decimate=0 / interlaced=0 / bluray_compat=0 / constrained_intra=0 / fgo=0 / bframes=8 / b_pyramid=2 / b_adapt=2 / b_bias=0 / direct=3 / weightb=1 / open_gop=0 / weightp=2 / keyint=250 / keyint_min=23 / scenecut=40 / intra_refresh=0 / rc_lookahead=60 / rc=crf / mbtree=0 / crf=17.2000 / qcomp=0.70 / qpmin=0:0:0 / qpmax=69:69:69 / qpstep=4 / vbv_maxrate=62500 / vbv_bufsize=78125 / crf_max=0.0 / nal_hrd=none / filler=0 / ip_ratio=1.24 / pb_ratio=1.18 / aq=1:0.80 / aq-sensitivity=10.00 / aq-factor=1.00:1.00:1.00 / aq2=0 / aq3=0 / zones=26,588,crf=16.5/1500,5330,crf=16.5/8884,9219,crf=16.5/9754,9834,crf=16.5/11740,11750,crf=16.5/13618,16530,crf=16.5/20829,22988,crf=16.5/23025,23093,crf=16/23600,23956,crf=16.5/27115,27149,crf=16/35597,37259,crf=16.5/43911,43957,crf=16.5/44278,44343,crf=16.5/44409,44452,crf=16.5/44707,44791,crf=16.5/45029,49532,crf=16.5/58779,58813,crf=16/60061,62754,crf=16.5/62755,62837,crf=16/63353,63354,crf=16/63483,63624,crf=16.5/64644,64663,crf=16.5/64728,64763,crf=16.5/64971,64985,crf=16.5/66976,67030,crf=16.5/68613,71011,crf=16.5/71012,71032,crf=16/71033,71199,crf=16.5/71200,71206,crf=16/71207,72022,crf=16.5/72023,72043,crf=16/72044,73430,crf=16.5/73431,73435,crf=16/73436,73454,crf=16.5/73455,73463,crf=16/73464,75939,crf=16.5/75940,75949,crf=16/75950,77459,crf=16.5/77460,77475,crf=16/77476,80010,crf=16.5/80011,80020,crf=16/80021,89428,crf=16.5/93581,95344,crf=16.5/101589,101780,crf=16/105338,105371,crf=16.5/106920,107231,crf=16.5/108070,108148,crf=16/108248,108281,crf=16.5/108559,108656,crf=16.5/108913,108973,crf=16/109801,110160,crf=16.5/110348,110367,crf=16/110683,110686,crf=16.5/110776,111996,crf=16.5/112097,112200,crf=16.5/112708,112819,crf=16.5/113201,113418,crf=15/114669,114684,crf=16.5/115052,115116,crf=16.5/115140,115587,crf=16.5/115588,115604,crf=16/115605,118777,crf=16.5/124386,124471,crf=16.5/127302,130575,crf=16.3/140682,140733,crf=16.5/141638,152009,crf=16.5/152250,152620,crf=16.5/152735,161614,crf=16.5/161799,161810,crf=16.5/162273,162290,crf=16.5/162304,162318,crf=16.5/162355,162387,crf=16.5/162412,162443,crf=16.5/162498,162506,crf=16.5/162703,162728,crf=16.5/162729,163862,crf=16.5/164125,164188,crf=16.5/164286,164300,crf=16.5/164346,164600,crf=16.5/164649,164684,crf=16.5/164702,164780,crf=16.5/164846,164883,crf=16.5/164902,164930,crf=16.5/165021,165030,crf=16.5/166750,167010,crf=16.5/168719,168767,crf=16.5/169585,169601,crf=16.5/169702,169725,crf=16.5/170418,170459,crf=16.5/170495,170627,crf=16.5/170912,171062,crf=16.5/171089,171141,crf=16.5/171542,171599,crf=16.5/172013,172028,crf=16.5/171960,172028,crf=16.5/172850,172987,crf=16.5/173108,173122,crf=16.5/173456,173514,crf=16.5/173607,173637,crf=16.5/173649,173669,crf=16.5/173870,173950,crf=16.5/174739,174752,crf=16.5/175235,181688,crf=16.5/181689,181782,crf=20/181783,185743,crf=18/186541,186548,crf=16.5/186767,186835,crf=16.5/186888,186945,crf=16.5/187008,187018,crf=16.5/187229,187247,crf=16.5/187529,187532,crf=16.5/188060,189028,crf=18/189036,189059,crf=16.5/189060,201274,crf=21
Язык : English
Default : Да
Forced : Нет
Коэффициенты матрицы : BT.709
DURATION : 02:19:54.845000000
NUMBER_OF_FRAMES : 201275
NUMBER_OF_BYTES : 14654527282
_STATISTICS_WRITING_APP : mkvmerge v8.2.0 ('World of Adventure') 64bit
_STATISTICS_WRITING_DATE_UTC : 2015-07-31 22:16:20
_STATISTICS_TAGS : BPS DURATION NUMBER_OF_FRAMES NUMBER_OF_BYTES

Аудио #1
Идентификатор : 2
Формат : AC-3
Формат/Информация : Audio Coding 3
Расширение режима : CM (complete main)
Параметр Endianness формата : Big
Идентификатор кодека : A_AC3
Продолжительность : 2 ч. 19 м.
Вид битрейта : Постоянный
Битрейт : 448 Кбит/сек
Каналы : 6 каналов
Расположение каналов : Front: L C R, Side: L R, LFE
Частота : 48,0 КГц
Битовая глубина : 16 бит
Метод сжатия : С потерями
Размер потока : 448 Мбайт (3%)
Язык : Russian
Default : Да
Forced : Нет

Аудио #2
Идентификатор : 3
Формат : DTS
Формат/Информация : Digital Theater Systems
Режим : 16
Параметр Endianness формата : Big
Идентификатор кодека : A_DTS
Продолжительность : 2 ч. 19 м.
Вид битрейта : Постоянный
Битрейт : 1509 Кбит/сек
Каналы : 6 каналов
Расположение каналов : Front: L C R, Side: L R, LFE
Частота : 48,0 КГц
Битовая глубина : 24 бит
Метод сжатия : С потерями
Размер потока : 1,47 Гбайт (9%)
Язык : English
Default : Нет
Forced : Нет

Текст #1
Идентификатор : 4
Формат : UTF-8
Идентификатор кодека : S_TEXT/UTF8
Идентификатор кодека/Информация : UTF-8 Plain Text
Язык : English
Default : Нет
Forced : Нет

Текст #2
Идентификатор : 5
Формат : UTF-8
Идентификатор кодека : S_TEXT/UTF8
Идентификатор кодека/Информация : UTF-8 Plain Text
Заголовок : SDH
Язык : English
Default : Нет
Forced : Нет

Меню
00:00:00.000 : en:00:00:00.000
00:04:39.946 : en:00:04:39.946
00:11:29.480 : en:00:11:29.480
00:16:39.290 : en:00:16:39.290
00:25:54.052 : en:00:25:54.052
00:33:43.897 : en:00:33:43.897
00:41:44.585 : en:00:41:44.585
00:46:41.006 : en:00:46:41.006
00:52:10.711 : en:00:52:10.711
01:02:31.414 : en:01:02:31.414
01:06:16.681 : en:01:06:16.681
01:14:16.869 : en:01:14:16.869
01:22:34.032 : en:01:22:34.032
01:33:21.137 : en:01:33:21.137
01:38:27.485 : en:01:38:27.485
01:45:40.084 : en:01:45:40.084
01:53:54.452 : en:01:53:54.452
01:58:31.062 : en:01:58:31.062
02:06:19.864 : en:02:06:19.864
02:11:31.175 : en:02:11:31.175
Свернуть

"Скриншоты"
Изображение
Изображение
Изображение
Свернуть
 sashannov нравится это.
Не в сети
Профиль  
Начать новую темуОтветить на тему  [ 1 сообщение ] 
Вы не можете начинать темы
Вы не можете отвечать на сообщения
Вы не можете редактировать свои сообщения
Вы не можете удалять свои сообщения