Правила форума

  • В этом разделе создание новых тем Запрещено.
  • Для создания новых тем пользуйтесь Корневым разделом DVD и HD фильмы.
Начать новую темуОтветить на тему  [ Сообщений: 3 ] 
Торрент файл
Размер: 7.33 GB • Зарегистрирован: 5 лет 7 месяцев • Статус: Проверено
Скачан: 131 раз • Желающих скачать: 0 • Поблагодарили: 41 раз
 Раздают: 0  |  0 KB/s  ]   Качают: 0  |  0 KB/s  ] 
 Полного источника не было 9 дней 
Сообщения
 Добавлено: 2011-04-30 13:05
Top-seeder
Аватара пользователя
Стаж: 9 лет
Сообщений: 1399
Спасибок: 28651
Лайков: 8
Форсаж / The Fast and the Furious

Изображение


Год выпуска: 2001
Страна: США, Германия
Жанр: боевик, триллер, криминал
Продолжительность: 01:46:57
Перевод: Профессиональный (полное дублирование)
Cубтитры: Английские

Режиссёр: Роб Коэн
В ролях: Пол Уокер, Вин Дизель, Мишель Родригес, Джордана Брюстер, Рик Юн, Чэд Линдберг, Джонни Стронг, Мэтт Шульце, Тед Левайн, Джа Рул.
Описание: Его имя Брайан, и он – яростный фанат турбин и нитроакселераторов, вводящих машину в настоящий форсаж. Его цель – попасть в автомобильную команду легендарного Дома Торетто, признанного чемпиона опасных уличных гонок, объявленных вне закона. Но все это является лишь частью правды. Брайан О’Коннер –полицейский, имеющий оперативное задание втереться в доверие к Доминику, подозреваемому в серии дерзких грабежей трейлеров, совершенных на полном ходу, «с колес».

Но чем больше доверия оказывает харизматичный лидер Дом наглому новичку, тем больше герой втягивается в жизнь «ангелов дорог», что почти сводит на нет его желание выполнить миссию.
Изображение 7.682

Качество: BDRip, 720p
Формат: MKV
Видео кодек: H264 (AVC)
Аудио кодек: AC3 (Dolby Digital),DTS
Видео: 1280 x 544 (2.353) at 23.976 fps AVC at 7160 Кбит/сек
Аудио 1: Русский 48.0 kHz, AC-3 at 384 Кбит/сек |Дубляж|
Аудио 2: Русский 48.0 kHz, DTS at 768 Кбит/сек |Гланц и Королёва|
Аудио 3: Английский 48.0 kHz, DTS at 1 536 Кбит/сек


Скриншоты
Изображение
Изображение
Изображение
Свернуть


MediaInfo
Общее
Уникальный идентификатор : 221568750029094537004780068069086344330 (0xA6B096CB775B166B86CCD4141FB4348A)
Полное имя : D:\Закачки\Форсаж.mkv
Формат : Matroska
Размер файла : 7,33 Гбайт
Продолжительность : 1 ч. 47 м.
Общий поток : 9788 Кбит/сек
Название фильма : HQ-Films
Дата кодирования : UTC 2009-04-13 18:47:39
Программа кодирования : mkvmerge v2.4.0 ('Fumbling Towards Ecstasy') built on Oct 11 2008 20:13:15
Библиотека кодирования : libebml v0.7.7 + libmatroska v0.8.1

Видео
Идентификатор : 1
Формат : AVC
Формат/Информация : Advanced Video Codec
Профиль формата : High@L4.1
Параметр CABAC формата : Да
Параметр ReFrames формата : 6 кадров
Идентификатор кодека : V_MPEG4/ISO/AVC
Продолжительность : 1 ч. 47 м.
Битрейт : 7160 Кбит/сек
Ширина : 1280 пикс.
Высота : 544 пикс.
Соотношение сторон : 2,35:1
Частота кадров : 23,976 кадр/сек
Цветовое пространство : YUV
Подвыборка цветности : 4:2:0
Битовая глубина : 8 бит
Тип развёртки : Прогрессивная
Бит/(Пиксели*Кадры) : 0.429
Размер потока : 5,20 Гбайт (71%)
Заголовок : The Fast and the Furious (2001)
Библиотека кодирования : x264 core 67 r1137M 1fda882
Настройки программы : cabac=1 / ref=6 / deblock=1:-3:-3 / analyse=0x3:0x133 / me=umh / subme=9 / psy_rd=1.0:0.0 / mixed_ref=1 / me_range=32 / chroma_me=1 / trellis=2 / 8x8dct=1 / cqm=2 / deadzone=21,11 / chroma_qp_offset=-2 / threads=6 / nr=0 / decimate=1 / mbaff=0 / bframes=16 / b_pyramid=0 / b_adapt=2 / b_bias=0 / direct=1 / wpredb=1 / keyint=250 / keyint_min=25 / scenecut=40 / rc=2pass / bitrate=7160 / ratetol=1.0 / qcomp=0.60 / qpmin=10 / qpmax=51 / qpstep=4 / cplxblur=20.0 / qblur=0.5 / ip_ratio=1.40 / pb_ratio=1.30 / aq=1:0.80
Язык : English

Аудио #1
Идентификатор : 2
Формат : AC-3
Формат/Информация : Audio Coding 3
Расширение режима : CM (complete main)
Идентификатор кодека : A_AC3
Продолжительность : 1 ч. 47 м.
Вид битрейта : Постоянный
Битрейт : 384 Кбит/сек
Каналы : 6 каналов
Расположение каналов : Front: L C R, Side: L R, LFE
Частота : 48,0 КГц
Битовая глубина : 16 бит
Метод сжатия : С потерями
Размер потока : 295 Мбайт (4%)
Заголовок : Дубляж
Язык : Russian

Аудио #2
Идентификатор : 3
Формат : DTS
Формат/Информация : Digital Theater Systems
Идентификатор кодека : A_DTS
Продолжительность : 1 ч. 47 м.
Вид битрейта : Постоянный
Битрейт : 755 Кбит/сек
Каналы : 6 каналов
Расположение каналов : Front: L C R, Side: L R, LFE
Частота : 48,0 КГц
Битовая глубина : 24 бит
Метод сжатия : С потерями
Размер потока : 579 Мбайт (8%)
Заголовок : Гланц и Ко
Язык : Russian

Аудио #3
Идентификатор : 4
Формат : DTS
Формат/Информация : Digital Theater Systems
Идентификатор кодека : A_DTS
Продолжительность : 1 ч. 47 м.
Вид битрейта : Постоянный
Битрейт : 1510 Кбит/сек
Каналы : 6 каналов
Расположение каналов : Front: L C R, Side: L R, LFE
Частота : 48,0 КГц
Битовая глубина : 24 бит
Метод сжатия : С потерями
Размер потока : 1,13 Гбайт (15%)
Заголовок : DTS 5.1 1536kbps
Язык : English

Текст
Идентификатор : 5
Формат : UTF-8
Идентификатор кодека : S_TEXT/UTF8
Идентификатор кодека/Информация : UTF-8 Plain Text
Язык : English

Свернуть
Не в сети
Профиль  
 Добавлено: 2013-03-28 11:55 (спустя 1 год 10 месяцев)
Аватара пользователя
Стаж: 8 лет 7 месяцев
Сообщений: 321
выйдитена связь )))) я качаю помогите скачать !!!!
Не в сети
Профиль  
 Добавлено: 2016-04-23 19:16 (спустя 3 года)
Аватара пользователя
Стаж: 9 лет
Сообщений: 202
Спасибок: 2
Лайков: 7
дайте скорости
Не в сети
Профиль  
Начать новую темуОтветить на тему  [ Сообщений: 3 ] 
Вы не можете начинать темы
Вы не можете отвечать на сообщения
Вы не можете редактировать свои сообщения
Вы не можете удалять свои сообщения