Правила форума

  • В этом разделе создание новых тем Запрещено.
  • Для создания новых тем пользуйтесь Корневым разделом DVD и HD фильмы.
Начать новую темуОтветить на тему  [ Сообщений: 2 ] 
Торрент файл
Размер: 7.27 GB • Зарегистрирован: 3 года 7 месяцев • Статус: Проверено
Скачан: 145 раз • Желающих скачать: 0 • Поблагодарили: 17 раз
 Раздают: 0  |  0 KB/s  ]   Качают: 0  |  0 KB/s  ] 
 Полного источника не было 5 месяцев 19 дней 
Сообщения
 Добавлено: 2013-04-20 10:00
Руководитель релиз-группы
Аватара пользователя
Стаж: 7 лет 4 месяца
Возраст: 31
Сообщений: 3407
Спасибок: 46729
Лайков: 5
Изображение

Фортуна Вегаса
Lay the Favorite


Год выпуска: 2012
Страна: США, Великобритания
Жанр: комедия
Продолжительность: 01:29:46
Перевод: Профессиональный (полное дублирование) [лицензия]
Режиссер: Стивен Фрирз
Сценарий: Бет Реймер, Д. В. Де Винсентис
Продюсер: Пол Триджбитс, Энтони Брегман, Д. В. Де Винсентис, Рэндолл Эмметт, Джордж Фурла
Оператор: Майкл МакДонаф
Композитор: Джеймс Сеймур Бретт
В ролях: Ребекка Холл, Брюс Уиллис, Кэтрин Зета-Джонс, Джошуа Джексон, Фрэнк Грилло, Винс Вон, Джон Кэрролл Линч, Лаура Препон, Уэйн Пер, Джоэль Мюррей, Хьюго Армстронг, Корбин Бернсен
Бюджет: $26 350 000
Сборы в США: $20 998
Описание: Девушка в 24 года переехала в Лас-Вегас, где нашла работу у добродушного толстяка Динка Хаймовица, содержащего нелегальную букмекерскую контору. Миляга Динк получил хорошее образование, но отличился в родном Нью-Йорке махинациями на ставках, из-за чего и сбежал в игорную столицу США. Игорным бизнесом Хаймовиц продолжал заниматься при помощи своего напарника букмекера Бернарда Роуза, который живет на Лонг-Айленде. Будучи математическими гениями, эти двое сколотили себе состояние на ставках и наивных клиентах, тогда как сама Бет научилась от них многим трюкам.
Изображение
MPAA: Изображение
Мировая премьера: 21 января 2012
Релиз на DVD: 23 апреля 2013, «Lizard Cinema Trade»
Релиз: Изображение Раздача группы: Изображение
Качество: BDRip, 1080p
Формат: MKV
Видео: AVC; 1920x1040 (16:9); 9406 Kbps; 25 fps; 0,188 bit/pixel
Аудио №1: AC3; 448 Kbps; CBR; 6 ch Russian
Аудио №2: DTS; 1510 Kbps; CBR; 6 ch; 24 bit English
mediainfo
Формат : Matroska
Версия формата : Version 4 / Version 2
Размер файла : 7,27 Гбайт
Продолжительность : 1 ч. 29 м.
Общий поток : 11,6 Мбит/сек
Дата кодирования : UTC 2013-04-20 01:54:13
Программа кодирования : mkvmerge v6.1.0 ('Old Devil') built on Mar 2 2013 14:32:37
Библиотека кодирования : libebml v1.3.0 + libmatroska v1.4.0

Видео
Идентификатор : 1
Формат : AVC
Формат/Информация : Advanced Video Codec
Профиль формата : High@L4.1
Параметр CABAC формата : Да
Параметр ReFrames формата : 4 кадра
Идентификатор кодека : V_MPEG4/ISO/AVC
Продолжительность : 1 ч. 29 м.
Битрейт : 9641 Кбит/сек
Ширина : 1920 пикселей
Высота : 1040 пикселей
Соотношение сторон : 16:9
Частота кадров : 25,000 кадров/сек
Цветовое пространство : YUV
Субдискретизация насыщенности : 4:2:0
Битовая глубина : 8 бит
Тип развёртки : Прогрессивная
Бит/(Пиксели*Кадры) : 0.193
Размер потока : 5,90 Гбайт (81%)
Библиотека кодирования : x264 core 129 r2230 1cffe9f
Настройки программы : cabac=1 / ref=4 / deblock=1:0:0 / analyse=0x3:0x133 / me=umh / subme=7 / psy=1 / psy_rd=1.00:0.00 / mixed_ref=1 / me_range=16 / chroma_me=1 / trellis=1 / 8x8dct=1 / cqm=0 / deadzone=21,11 / fast_pskip=0 / chroma_qp_offset=-2 / threads=24 / lookahead_threads=4 / sliced_threads=0 / nr=0 / decimate=1 / interlaced=0 / bluray_compat=0 / constrained_intra=0 / bframes=3 / b_pyramid=2 / b_adapt=1 / b_bias=0 / direct=1 / weightb=1 / open_gop=0 / weightp=2 / keyint=250 / keyint_min=25 / scenecut=40 / intra_refresh=0 / rc=2pass / mbtree=0 / bitrate=9641 / ratetol=1.0 / qcomp=0.60 / qpmin=0 / qpmax=69 / qpstep=4 / cplxblur=20.0 / qblur=0.5 / ip_ratio=1.40 / pb_ratio=1.30 / aq=1:1.00
Язык : English

Аудио #1
Идентификатор : 2
Формат : AC-3
Формат/Информация : Audio Coding 3
Расширение режима : CM (complete main)
Идентификатор кодека : A_AC3
Продолжительность : 1 ч. 29 м.
Вид битрейта : Постоянный
Битрейт : 448 Кбит/сек
Каналы : 6 каналов
Расположение каналов : Front: L C R, Side: L R, LFE
Частота : 48,0 КГц
Битовая глубина : 16 бит
Метод сжатия : С потерями
Размер потока : 288 Мбайт (4%)
Язык : Russian

Аудио #2
Идентификатор : 3
Формат : DTS
Формат/Информация : Digital Theater Systems
Идентификатор кодека : A_DTS
Продолжительность : 1 ч. 29 м.
Вид битрейта : Постоянный
Битрейт : 1510 Кбит/сек
Каналы : 6 каналов
Расположение каналов : Front: L C R, Side: L R, LFE
Частота : 48,0 КГц
Битовая глубина : 24 бит
Метод сжатия : С потерями
Размер потока : 969 Мбайт (13%)
Заголовок : english
Язык : English

Свернуть
"Знаете ли Вы, что..."
  • Джастин Тимберлэйк рассматривался на роль Рози, но в итоге роль получил Винс Вон.
  • Компания Weinstein приобрела права на распространение за сумму чуть более $ 2 миллионов.
  • Во время баскетбольной игры по телевизору в последние минуты фильма, по сюжету время матча истекает, и у игрока «NJ» есть два штрафных броска, чтобы обойти «LA». Когда камера фокусируется на лице игрока, заметно, что на часы на другом конце площадки показывают 6:40 (время, оставшееся до конца матча).
Свернуть
Скриншоты

Изображение

Изображение

Изображение

Изображение
Свернуть
Не в сети
Профиль  
 Добавлено: 2013-04-21 19:14 (спустя 1 день 9 часов)
Аватара пользователя
Стаж: 8 лет
Сообщений: 1390
Спасибок: 39
Лайков: 64
"нашла работу у добродушного толстяка Динка Хаймовица" - ну да, Брюс тот еще жиробас :-D а Кетрин Зета эт его жена типо, эта пластикосиликоновая кукла пенсионерка ;;-))) кароч отстой а не фильм :ne_ne: за качество спасибо :a_g_a:
Не в сети
Профиль  
Начать новую темуОтветить на тему  [ Сообщений: 2 ] 
Вы не можете начинать темы
Вы не можете отвечать на сообщения
Вы не можете редактировать свои сообщения
Вы не можете удалять свои сообщения