Правила форума

  • В этом разделе создание новых тем Запрещено.
  • Для создания новых тем пользуйтесь Корневым разделом DVD и HD фильмы.
Начать новую темуОтветить на тему  [ Сообщений: 2 ] 
Торрент файл
Размер: 5.85 GB • Зарегистрирован: 3 года 8 месяцев • Статус: T Временный релиз
Скачан: 68 раз • Желающих скачать: 0 • Поблагодарили: 18 раз
 Раздают: 0  |  0 KB/s  ]   Качают: 0  |  0 KB/s  ] 
 Полного источника не было 2 года 2 месяца 
Сообщения
 Добавлено: 2013-03-09 09:39
Модератор релиз-группы
Аватара пользователя
Стаж: 9 лет 1 месяц
Возраст: 97
Сообщений: 11659
Спасибок: 6532
Лайков: 269
Фрэнки наводит шорох / Frankie Go Boom


Изображение


Год выпуска: 2012
Страна: США / Ministry of Content
Жанр: Комедия
Продолжительность: 01:29:01
Перевод:Профессиональный (многоголосный) [BaibaKo]

Режиссер: Джордан Робертс

В ролях: Чарли Ханнэм, Крис О’Дауд, Лиззи Каплан, Крис Нот, Рон Перлман

Описание: Франк Бартлетт долгое время подвергался пыткам, издевкам, и оскорблениям от своего брата-наркомана Брюса — и, как правило, все это Брюс записывал на камеру. Теперь, когда Брюс, наконец, завязал с наркотиками и изменил свою жизнь, все должно пойти к лучшему, но…

Изображение

Качество: BDRip 1080p
Формат: mkv
Видео: MPEG4 (AVC), 1920x800, 23.976 fps, 9024 kbit/s
Аудио: AC3, 48 kHz, 6 ch, 384 kbit/s RUS

"Скриншоты"
Изображение

Изображение

Изображение
Свернуть
Mi
General
Unique ID : 240597380228972291251861944841988897757 (0xB5015EB294670280BDCDC9DC75A67BDD)
Complete name : D:\Frankie.Go.Boom..mkv
Format : Matroska
Format version : Version 4 / Version 2
File size : 5.85 GiB
Duration : 1h 29mn
Overall bit rate : 9 405 Kbps
Movie name : BaibaKo.tv presents - Фрэнки наводит шорох
Encoded date : UTC 2013-03-09 06:19:56
Writing application : mkvmerge v6.1.0 ('Old Devil') built on Mar 2 2013 14:32:37
Writing library : libebml v1.3.0 + libmatroska v1.4.0

Video
ID : 1
Format : AVC
Format/Info : Advanced Video Codec
Format profile : High@L4.1
Format settings, CABAC : Yes
Format settings, ReFrames : 5 frames
Codec ID : V_MPEG4/ISO/AVC
Duration : 1h 29mn
Bit rate : 9 024 Kbps
Width : 1 920 pixels
Height : 800 pixels
Display aspect ratio : 2.40:1
Frame rate mode : Constant
Frame rate : 23.976 fps
Color space : YUV
Chroma subsampling : 4:2:0
Bit depth : 8 bits
Scan type : Progressive
Bits/(Pixel*Frame) : 0.245
Stream size : 5.49 GiB (94%)
Writing library : x264 core 129 r2230 1cffe9f
Encoding settings : cabac=1 / ref=5 / deblock=1:0:0 / analyse=0x3:0x133 / me=umh / subme=8 / psy=1 / psy_rd=1.00:0.00 / mixed_ref=1 / me_range=16 / chroma_me=1 / trellis=1 / 8x8dct=1 / cqm=0 / deadzone=21,11 / fast_pskip=0 / chroma_qp_offset=-2 / threads=12 / lookahead_threads=2 / sliced_threads=0 / nr=0 / decimate=1 / interlaced=0 / bluray_compat=0 / constrained_intra=0 / bframes=3 / b_pyramid=2 / b_adapt=1 / b_bias=0 / direct=1 / weightb=1 / open_gop=0 / weightp=2 / keyint=250 / keyint_min=23 / scenecut=40 / intra_refresh=0 / rc_lookahead=40 / rc=2pass / mbtree=1 / bitrate=9024 / ratetol=1.0 / qcomp=0.60 / qpmin=0 / qpmax=69 / qpstep=4 / cplxblur=20.0 / qblur=0.5 / ip_ratio=1.40 / aq=1:1.00
Language : English
Default : Yes
Forced : No

Audio
ID : 2
Format : AC-3
Format/Info : Audio Coding 3
Mode extension : CM (complete main)
Format settings, Endianness : Big
Codec ID : A_AC3
Duration : 1h 29mn
Bit rate mode : Constant
Bit rate : 384 Kbps
Channel(s) : 6 channels
Channel positions : Front: L C R, Side: L R, LFE
Sampling rate : 48.0 KHz
Bit depth : 16 bits
Compression mode : Lossy
Stream size : 245 MiB (4%)
Title : Rus BaibaKo.tv DD5.1
Language : Russian
Default : Yes
Forced : No

Свернуть
_________________
Изображение
Не в сети
Профиль  
 Добавлено: 2013-07-27 16:57 (спустя 4 месяца 18 дней)
Стаж: 6 лет 8 месяцев
Сообщений: 33
Спасибок: 3
Прикольный фильмец! 8 из 10.
Не в сети
Профиль  
Начать новую темуОтветить на тему  [ Сообщений: 2 ] 
Вы не можете начинать темы
Вы не можете отвечать на сообщения
Вы не можете редактировать свои сообщения
Вы не можете удалять свои сообщения