Правила форума

  • В этом разделе создание новых тем Запрещено.
  • Для создания новых тем пользуйтесь Корневым разделом DVD и HD фильмы.
Начать новую темуОтветить на тему  [ Сообщений: 2 ] 
Торрент файл
Размер: 14.73 GB • Зарегистрирован: 3 года 4 месяца • Статус: Проверено
Скачан: 186 раз • Желающих скачать: 0 • Поблагодарили: 61 раз
 Раздают: 1  |  0 KB/s  ]   Качают: 0  |  0 KB/s  ] 
Сообщения
 Добавлено: 2013-07-14 10:10
Модератор релиз-группы
Аватара пользователя
Стаж: 9 лет 1 месяц
Возраст: 97
Сообщений: 11659
Спасибок: 6531
Лайков: 269
G.I. Joe: Бросок кобры 2 / G.I. Joe: Retaliation

Изображение


Год выпуска: 2013
Страна: сша
Жанр: фантастика, боевик, триллер, приключения
Продолжительность: 01:50:14
Перевод: Профессиональный (дубляж) [лицензия]

Режиссёр: Джон М. Чу
В ролях: Дуэйн Джонсон, Эдрианн Палики, Брюс Уиллис, Рэй Парк, Ли Бён Хон, Д.Дж. Котрона, Джонатан Прайс, Элоди Юнг, Ченнинг Татум, Люк Брейси
Описание: Во второй части отряд «G.I. Joe» вновь объявит вызов группировке «Кобра» и вступит в противостояние с правительством...

Изображение
Качество: BDRemux
Формат: MKV
Видео кодек: MPEG-4
Аудио кодек: AC3 (Dolby Digital)
Видео: MPEG4_AVC/H.264, 1920x800, ~17500 kbps, 23.976 fps
Аудио1: AC3 5.1, 640 kbps, 48 kHz [Профессиональный дубляж (Blu-ray CEE)]
Аудио2: AC3 5.1, 640 kbps, 48 kHz [Английский - оригинал]
Скриншоты
Изображение
Изображение
Изображение
Изображение
Свернуть
Mi
General
Unique ID : 197773026483350893827454089810390598473 (0x94C9B30B33045B6E87C637F67EA0C349)
Complete name : D:\G.I.Joe.Retaliation.(2013).BDRip.1080p.mkv
Format : Matroska
Format version : Version 2
File size : 14.7 GiB
Duration : 1h 50mn
Overall bit rate : 19.1 Mbps
Movie name : G.I. Joe: Retaliation (2013) / NNM-Club.ru
Encoded date : UTC 2013-07-13 18:48:37
Writing application : mkvmerge v5.7.0 ('The Whirlwind') built on Aug 7 2012 14:11:40
Writing library : libebml v1.2.3 + libmatroska v1.3.0

Video
ID : 1
Format : AVC
Format/Info : Advanced Video Codec
Format profile : High@L4.1
Format settings, CABAC : Yes
Format settings, ReFrames : 5 frames
Codec ID : V_MPEG4/ISO/AVC
Duration : 1h 50mn
Bit rate : 17.5 Mbps
Width : 1 920 pixels
Height : 800 pixels
Display aspect ratio : 2.40:1
Frame rate mode : Constant
Frame rate : 23.976 fps
Color space : YUV
Chroma subsampling : 4:2:0
Bit depth : 8 bits
Scan type : Progressive
Bits/(Pixel*Frame) : 0.474
Stream size : 13.5 GiB (91%)
Writing library : x264 core 132 r2323+704+51 d571b1c tMod [8-bit@4:2:0 X86_64]
Encoding settings : cabac=1 / ref=5 / deblock=1:-3:-3 / analyse=0x3:0x113 / me=umh / subme=11 / psy=1 / fade_compensate=0.00 / psy_rd=1.02:0.00 / mixed_ref=1 / me_range=32 / chroma_me=1 / trellis=2 / 8x8dct=1 / cqm=0 / deadzone=21,11 / fast_pskip=0 / chroma_qp_offset=-2 / threads=36 / lookahead_threads=6 / sliced_threads=0 / nr=0 / decimate=0 / interlaced=0 / bluray_compat=0 / constrained_intra=0 / fgo=0 / bframes=8 / b_pyramid=2 / b_adapt=2 / b_bias=0 / direct=3 / weightb=1 / open_gop=0 / weightp=2 / keyint=240 / keyint_min=24 / scenecut=40 / intra_refresh=0 / rc_lookahead=240 / rc=crf / mbtree=1 / crf=18.3000 / qcomp=0.70 / qpmin=0 / qpmax=69 / qpstep=4 / ip_ratio=1.20 / aq=4:0.80 / aq-sensitivity=10.00 / aq-factor=1.00:1.00:1.00 / aq2=0 / aq3=0
Language : English
Default : Yes
Forced : No

Audio #1
ID : 2
Format : AC-3
Format/Info : Audio Coding 3
Mode extension : CM (complete main)
Format settings, Endianness : Big
Codec ID : A_AC3
Duration : 1h 50mn
Bit rate mode : Constant
Bit rate : 640 Kbps
Channel(s) : 6 channels
Channel positions : Front: L C R, Side: L R, LFE
Sampling rate : 48.0 KHz
Bit depth : 16 bits
Compression mode : Lossy
Stream size : 505 MiB (3%)
Title : AC3 5.1 / 640 kbps / Dub (Blu-ray CEE)
Language : Russian
Default : Yes
Forced : No

Audio #2
ID : 3
Format : AC-3
Format/Info : Audio Coding 3
Mode extension : CM (complete main)
Format settings, Endianness : Big
Codec ID : A_AC3
Duration : 1h 50mn
Bit rate mode : Constant
Bit rate : 640 Kbps
Channel(s) : 6 channels
Channel positions : Front: L C R, Side: L R, LFE
Sampling rate : 48.0 KHz
Bit depth : 16 bits
Compression mode : Lossy
Stream size : 505 MiB (3%)
Title : AC3 5.1 / 640 kbps / Original
Language : English
Default : No
Forced : No

Text #1
ID : 4
Format : UTF-8
Codec ID : S_TEXT/UTF8
Codec ID/Info : UTF-8 Plain Text
Language : Russian
Default : No
Forced : No

Text #2
ID : 5
Format : UTF-8
Codec ID : S_TEXT/UTF8
Codec ID/Info : UTF-8 Plain Text
Language : Ukrainian
Default : No
Forced : No

Text #3
ID : 6
Format : UTF-8
Codec ID : S_TEXT/UTF8
Codec ID/Info : UTF-8 Plain Text
Language : English
Default : No
Forced : No

Menu
00:00:00.000 : en:Chapter 1
00:06:08.242 : en:Chapter 2
00:12:52.313 : en:Chapter 3
00:17:35.471 : en:Chapter 4
00:25:37.369 : en:Chapter 5
00:30:56.187 : en:Chapter 6
00:39:00.880 : en:Chapter 7
00:42:40.975 : en:Chapter 8
00:48:31.241 : en:Chapter 9
00:54:02.989 : en:Chapter 10
01:01:46.536 : en:Chapter 11
01:07:34.675 : en:Chapter 12
01:13:56.807 : en:Chapter 13
01:17:54.461 : en:Chapter 14
01:23:45.979 : en:Chapter 15
01:31:12.758 : en:Chapter 16
01:41:13.358 : en:Chapter 17


Свернуть
_________________
Изображение


Последний раз редактировалось Артурыч 2013-07-14 13:15, всего редактировалось 1 раз.
Не в сети
Профиль  
 Добавлено: 2013-10-07 16:08 (спустя 2 месяца 24 дня)
Аватара пользователя
Стаж: 8 лет
Сообщений: 1390
Спасибок: 39
Лайков: 63
amazonia
валенки с глаз сними и характеристики почитай :ni_zia:


Тема поднималась пользователем Артурыч 2013-10-07 16:08.
Не в сети
Профиль  
Начать новую темуОтветить на тему  [ Сообщений: 2 ] 
Вы не можете начинать темы
Вы не можете отвечать на сообщения
Вы не можете редактировать свои сообщения
Вы не можете удалять свои сообщения