Правила форума

  • В этом разделе создание новых тем Запрещено.
  • Для создания новых тем пользуйтесь Корневым разделом DVD и HD фильмы.
Начать новую темуОтветить на тему  [ 1 сообщение ] 
Торрент файл
Размер: 8.03 GB • Зарегистрирован: 3 года 4 месяца • Статус: Проверено
Скачан: 186 раз • Желающих скачать: 0 • Поблагодарили: 57 раз
 Раздают: 0  |  0 KB/s  ]   Качают: 0  |  0 KB/s  ] 
 Полного источника не было 2 года 7 месяцев 
Сообщения
 Добавлено: 2013-07-11 15:54
Модератор релиз-группы
Аватара пользователя
Стаж: 9 лет 1 месяц
Возраст: 97
Сообщений: 11660
Спасибок: 6534
Лайков: 269
G.I. Joe: Бросок кобры 2 / G.I. Joe: Retaliation

Изображение


Год выпуска: 2013
Страна: сша
Жанр: Фантастика, боевик, триллер, приключения
Продолжительность: 02:03:00
Версия фильма: Extended cut / Расширенная версия
Перевод: Профессиональный (дубляж)
Внимание!!! EXTENDED версия длиннее театральной на ~15 минут. На расширенные места перевод только субтитрами !!!
Дублеры: Юрий Деркач, Ирина Киреева, Владимир Герасимов, Александр Гаврилин, Дмитрий Поляновский + Оригинальная звуковая дорожка

Режиссёр: Джон М. Чу
В ролях: Дуэйн Джонсон, Эдрианн Палики, Брюс Уиллис, Рэй Парк, Ли Бён Хон, Ди Джей Котрона, Джонатан Прайс, Элоди Юнг, Ченнинг Татум, Люк Брейси, Рэй Стивенсон, Уолтон Гоггинс, Арнольд Вослу, Джозеф Маццелло, Ник Эриксон, RZA, Наим Альхерими, Рави Найду, Мэтт Джералд, Дуглас М. Гриффин, Джо Крест, Джеймс Карвилл, Райан Хансен, ДеРэй Дэвис, Нэйтан Такасигэ
Описание: Во второй части отряд «G.I. Joe» вновь объявит вызов группировке «Кобра» и вступит в противостояние с правительством…
Изображение

Качество: BDRip 1080p
Формат: mkv
Видео кодек: MPEG4
Аудио кодек: AC3 (Dolby Digital)
Видео: V_MPEG4/ISO/AVC, 8259 Кбит/с, 1920x800, 23.976 кадра/с
Аудио #1: Русский (AC3, 6 ch, 448 Кбит/с) [Профессиональный (дубляж)]
Аудио #2: Английский (AC3, 6 ch, 640 Кбит/с) [Оригинальная звуковая дорожка]
Скриншоты
Изображение
Изображение
Изображение
Изображение
Свернуть
Mi
General
Unique ID : 243776487494030522683125983449245200408 (0xB765A4C989C9A87D9F6B608F6BE2B018)
Complete name : D:\Brosok.kobry.2.EXTENDED.2013.D.BDRip.1080p.mkv
Format : Matroska
Format version : Version 4 / Version 2
File size : 8.03 GiB
Duration : 2h 3mn
Overall bit rate : 9 352 Kbps
Encoded date : UTC 2013-07-10 18:26:11
Writing application : mkvmerge v6.2.0 ('Promised Land') built on Apr 28 2013 12:22:01
Writing library : libebml v1.3.0 + libmatroska v1.4.0

Video
ID : 1
Format : AVC
Format/Info : Advanced Video Codec
Format profile : High@L4.1
Format settings, CABAC : Yes
Format settings, ReFrames : 5 frames
Codec ID : V_MPEG4/ISO/AVC
Duration : 2h 3mn
Bit rate : 8 259 Kbps
Width : 1 920 pixels
Height : 800 pixels
Display aspect ratio : 2.40:1
Frame rate mode : Constant
Frame rate : 23.976 fps
Color space : YUV
Chroma subsampling : 4:2:0
Bit depth : 8 bits
Scan type : Progressive
Bits/(Pixel*Frame) : 0.224
Stream size : 6.94 GiB (86%)
Writing library : x264 core 133 r2334 a3ac64b
Encoding settings : cabac=1 / ref=5 / deblock=1:0:0 / analyse=0x3:0x133 / me=umh / subme=7 / psy=1 / psy_rd=1.00:0.00 / mixed_ref=1 / me_range=16 / chroma_me=1 / trellis=1 / 8x8dct=1 / cqm=0 / deadzone=21,11 / fast_pskip=0 / chroma_qp_offset=-2 / threads=6 / lookahead_threads=1 / sliced_threads=0 / nr=0 / decimate=1 / interlaced=0 / bluray_compat=0 / constrained_intra=0 / bframes=3 / b_pyramid=2 / b_adapt=2 / b_bias=0 / direct=3 / weightb=1 / open_gop=0 / weightp=2 / keyint=250 / keyint_min=23 / scenecut=40 / intra_refresh=0 / rc_lookahead=50 / rc=2pass / mbtree=1 / bitrate=8259 / ratetol=1.0 / qcomp=0.60 / qpmin=0 / qpmax=69 / qpstep=4 / cplxblur=20.0 / qblur=0.5 / ip_ratio=1.40 / aq=1:1.00
Language : English
Default : Yes
Forced : No

Audio #1
ID : 2
Format : AC-3
Format/Info : Audio Coding 3
Mode extension : CM (complete main)
Format settings, Endianness : Big
Codec ID : A_AC3
Duration : 2h 3mn
Bit rate mode : Constant
Bit rate : 448 Kbps
Channel(s) : 6 channels
Channel positions : Front: L C R, Side: L R, LFE
Sampling rate : 48.0 KHz
Bit depth : 16 bits
Compression mode : Lossy
Stream size : 394 MiB (5%)
Language : Russian
Default : Yes
Forced : Yes

Audio #2
ID : 3
Format : AC-3
Format/Info : Audio Coding 3
Mode extension : CM (complete main)
Format settings, Endianness : Big
Codec ID : A_AC3
Duration : 2h 3mn
Bit rate mode : Constant
Bit rate : 640 Kbps
Channel(s) : 6 channels
Channel positions : Front: L C R, Side: L R, LFE
Sampling rate : 48.0 KHz
Bit depth : 16 bits
Compression mode : Lossy
Stream size : 563 MiB (7%)
Language : English
Default : No
Forced : No

Text
ID : 4
Format : PGS
Codec ID : S_HDMV/PGS
Codec ID/Info : The same subtitle format used on BDs/HD-DVDs
Language : Russian
Default : Yes
Forced : Yes

Menu
00:00:00.000 : en:00:00:00.000
00:11:31.858 : en:00:11:31.858
00:18:28.607 : en:00:18:28.607
00:23:49.261 : en:00:23:49.261
00:31:58.125 : en:00:31:58.125
00:37:16.943 : en:00:37:16.943
00:46:13.646 : en:00:46:13.646
00:48:16.727 : en:00:48:16.727
00:54:59.630 : en:00:54:59.630
01:00:31.378 : en:01:00:31.378
01:08:14.924 : en:01:08:14.924
01:14:38.474 : en:01:14:38.474
01:22:21.770 : en:01:22:21.770
01:26:19.424 : en:01:26:19.424
01:32:55.487 : en:01:32:55.487
01:43:06.097 : en:01:43:06.097
01:53:55.579 : en:01:53:55.579

Свернуть
Не в сети
Профиль  
Начать новую темуОтветить на тему  [ 1 сообщение ] 
Вы не можете начинать темы
Вы не можете отвечать на сообщения
Вы не можете редактировать свои сообщения
Вы не можете удалять свои сообщения