Правила форума

  • В этом разделе создание новых тем Запрещено.
  • Для создания новых тем пользуйтесь Корневым разделом DVD и HD фильмы.
Начать новую темуОтветить на тему  [ Сообщений: 2 ] 
Торрент файл
Размер: 3.15 GB • Зарегистрирован: 6 лет 8 месяцев • Статус: Проверено
Скачан: 88 раз • Желающих скачать: 0 • Поблагодарили: 17 раз
 Раздают: 0  |  0 KB/s  ]   Качают: 0  |  0 KB/s  ] 
 Полного источника не было 2 года 4 месяца 
Сообщения
 Добавлено: 2010-03-25 14:52
Аватара пользователя
Стаж: 8 лет 5 месяцев
Сообщений: 60
Спасибок: 579
Изображение

Галактика ТНХ-1138 / THX 1138

Первый фильм Джорджа Лукаса


Год выпуска: 1971
Страна: США
Слоган: «A Love Story Filmed on Location in the 21st Century»

Жанр: Фантастика, антиутопия, драма, триллер
Продолжительность: 01:28:21
Перевод: Профессиональный (многоголосый, закадровый)
Режиссер: Джордж Лукас
Сценарий: Джордж Лукас, Уолтер Мёрч, Мэттью Роббинс
Продюсер: Френсис Форд Коппола, Edward Folger, Larry Sturhahn
Оператор: Albert Kihn, Дэвид Майерс
Композитор: Лало Шифрин

В ролях: Роберт Дювалл, Дональд Плезенс, Дон Педро Колли, Maggie McOmie, Йен Вульф, Маршалл Эфрон, Сид Хэйг, Джон Пирс, Ирен Форрест, Гари Алан Марш

Описание:
Жанр социальной фантастики довольно часто затрагивает подобные темы. Мрачно и безысходно рисуется мир будущего, в котором всем заправляет какая-нибудь бездушная машина, ставящая перед собой неясные, но явно негуманные цели, а люди совершенно потеряли дух свободы и способность к самостоятельному существованию.
Большинству даже нравится, ведь проблем-то никаких. Но вот однажды случается невероятное - безликий номер ТНХ-1138 вдруг восстает против системы и начинает войну…

Изображение
Изображение
MPAA: Изображение
Качество: HDRip 720p
Формат: Matroska

Видео: AVC; 1280x548 (2.35:1); 4163 Kbps; 23,976 fps; 0,248 bpp
Аудио №1: Russian; AC3; 384 Kbps; CBR; 2 ch
Аудио №2: English; AC3; 448 Kbps; CBR; 6 ch
Субтитры: English

"Отчет MediaInfo"
General
Complete name : D:\THX.1138.1971.mkv
Format : Matroska
File size : 3.15 GiB
Duration : 1h 28mn
Overall bit rate : 5 097 Kbps
Movie name : THX-1138 (DirCut) - Release for HDClub
Encoded date : UTC 2008-08-27 13:42:24
Writing application : mkvmerge v2.1.0 ('Another Place To Fall') built on Aug 19 2007 13:40:07
Writing library : libebml v0.7.7 + libmatroska v0.8.1

Video
ID : 1
Format : AVC
Format/Info : Advanced Video Codec
Format profile : High@L4.1
Format settings, CABAC : Yes
Format settings, ReFrames : 6 frames
Muxing mode : Container profile=Unknown@4.1
Codec ID : V_MPEG4/ISO/AVC
Duration : 1h 28mn
Bit rate : 4 163 Kbps
Nominal bit rate : 4 260 Kbps
Width : 1 280 pixels
Height : 548 pixels
Display aspect ratio : 2.35:1
Frame rate : 23.976 fps
Resolution : 8 bits
Colorimetry : 4:2:0
Scan type : Progressive
Bits/(Pixel*Frame) : 0.248
Stream size : 2.57 GiB (82%)
Title : Release for HDClub
Writing library : x264 core 60 r886M 1075536
Encoding settings : cabac=1 / ref=6 / deblock=1:-2:-1 / analyse=0x3:0x133 / me=umh / subme=7 / brdo=1 / mixed_ref=1 / me_range=24 / chroma_me=1 / trellis=0 / 8x8dct=1 / cqm=2 / deadzone=6,4 / chroma_qp_offset=0 / threads=6 / nr=0 / decimate=1 / mbaff=0 / fgo=6 / bframes=16 / b_pyramid=0 / b_adapt=1 / b_bias=0 / direct=1 / wpredb=1 / bime=1 / keyint=250 / keyint_min=25 / scenecut=40(pre) / rc=2pass / bitrate=4260 / ratetol=1.0 / rceq='blurCplx^(1-qComp)' / qcomp=1.00 / qpmin=10 / qpmax=51 / qpstep=4 / cplxblur=20.0 / qblur=0.5 / ip_ratio=1.40 / pb_ratio=1.18 / aq=2:1.00
Language : English

Audio #1
ID : 2
Format : AC-3
Format/Info : Audio Coding 3
Codec ID : A_AC3
Duration : 1h 28mn
Bit rate mode : Constant
Bit rate : 384 Kbps
Channel(s) : 2 channels
Channel positions : Front: L R
Sampling rate : 48.0 KHz
Stream size : 243 MiB (8%)
Title : AC3 2.0 384k Mnogogoloska
Language : Russian

Audio #2
ID : 3
Format : AC-3
Format/Info : Audio Coding 3
Codec ID : A_AC3
Duration : 1h 28mn
Bit rate mode : Constant
Bit rate : 448 Kbps
Channel(s) : 6 channels
Channel positions : Front: L C R, Side: L R, LFE
Sampling rate : 48.0 KHz
Stream size : 283 MiB (9%)
Title : AC3 5.1 448kbps
Language : English

Text
ID : 4
Format : UTF-8
Codec ID : S_TEXT/UTF8
Codec ID/Info : UTF-8 Plain Text
Language : English

Свернуть
"Знаете ли Вы, что..."
  • Изображение голографического Иисуса в исповедальных кабинках подземного города в действительности является портретом средневекового художника Альбрехта Дюрера (Albrecht Durer).
  • Сцена преследования беглецов андроидами-полицейскими была снята в автоматном зале крупной АТС, т.е. бесконечные ряды электронного оборудования являлись телефонным оборудованием.
  • Джордж Лукас впоследствии в своих работах несколько раз делал ссылки на свой первый фильм. Так, в картине «Американские граффити» (American Graffiti, 1973) фигурирует номер автомобиля «THX 138», а в картине «Звездные войны» (Star Wars, 1977) присутствует тюремная камера под номером 1138.
  • Руководителям студии «Warner Brothers» не понравился законченный вариант картины, и потому было принято решении о сокращении экранного времени фильма и уменьшении бюджета на маркетинг.
  • Картина снималась в Сан-Франциско, Беркли и Сан-Рафаэле – городах штата Калифорния.
  • Этот фильм является расширенной версией 15-минутной студенческой дипломной работы режиссера «ТНХ 1138 4ЕВ», которая заслужила высокие оценки и возможность сделать полнометражную версию на студии Фрэнсиса Форда Копполы (Francis Ford Coppola) «American Zoetrope», для которой эта картина стала первой.
Свернуть
"Скриншоты"

Изображение
Изображение
Изображение
Изображение
Изображение
Свернуть
Не в сети
Профиль  
 Добавлено: 2010-03-26 22:52 (спустя 1 день 8 часов)
Стаж: 7 лет 5 месяцев
Сообщений: 51
Кто смотрел? Как фильм?
Не в сети
Профиль  
Начать новую темуОтветить на тему  [ Сообщений: 2 ] 
Вы не можете начинать темы
Вы не можете отвечать на сообщения
Вы не можете редактировать свои сообщения
Вы не можете удалять свои сообщения