Правила форума

  • В этом разделе создание новых тем Запрещено.
  • Для создания новых тем пользуйтесь Корневым разделом DVD и HD фильмы.
Начать новую темуОтветить на тему  [ Сообщений: 4 ] 
Торрент файл
Размер: 5.47 GB • Зарегистрирован: 4 года 5 месяцев • Статус: Проверено
Скачан: 221 раз • Желающих скачать: 0 • Поблагодарили: 45 раз
 Раздают: 1  |  0 KB/s  ]   Качают: 0  |  0 KB/s  ] 
Сообщения
 Добавлено: 2012-06-09 15:04
Top-releaser
Аватара пользователя
Стаж: 6 лет 7 месяцев
Сообщений: 2078
Спасибок: 3229
Лайков: 9
Гангстер [Расширенная версия] / American Gangster [Unrated Edition]

Изображение


Год выпуска: 2007
Страна: США
Жанр: криминальная драма
Продолжительность: 02:55:45
Перевод: Профессиональный (полное дублирование) + Профессиональный (многоголосый, закадровый)

Режиссёр: Ридли Скотт
В ролях: Дензел Вашингтон, Расселл Кроу, Чиветель Эджиофор, Джош Бролин, Лимари Надаль, Тед Ливайн, Роджер Женвер Смит, Джон Хоукс, РЗА, Юл Васкез, Малкольм Гудвин, Руби Ди, Рубен Сантьяго-Хадсон, Карла Гуджино, Джон Ортиз, Кьюба Гудинг мл., Арманд Ассанте, Кэтлин Гаррет, Джо Мортон, Ричи Костер
Описание: После смерти хозяина, Фрэнк Лукас, тихий водитель гарлемского преступного авторитета, решает создать собственную криминальную империю. Его специальность — героин, который он ввозит напрямую из Юго-Восточной Азии. Лукас считает себя бизнесменом и конкурирует с другими группировками по всем правилам рыночной экономики, предлагая более качественный продукт по более низкой цене. Зарабатывая миллион долларов в день и придерживаясь однажды установленных для себя правил игры, он становится идолом для всего Гарлема, но по следам Фрэнка уже идёт Ричи Робертс — редкий для Нью-Йорка образец честного полицейского, ненавидимого коллегами.

Раздача группы: Изображение
Бюджет: $100 000 000
Сборы в США: $130 164 645
Сборы в мире: + $135 752 953 = $265 917 598


Качество: BDRip
Формат: MKV
Видео кодек: H.264
Аудио кодек: AC3
Видео: 1280x694, 23.976 fps, x264, 3111.65 kbit/s
Аудио #1: Русский 5.1 48 KHz 448 kbps [Dub]
Аудио #2: Русский 5.1 48 KHz 448 kbps [MVO]
Аудио #3: Английский 5.1 48 KHz 448 kbps [Original]
Субтитры: Русские, Английские

Примечание: Это расширенная, или, как ее еще называют, полная версия фильма. Добавлены эпизоды не вошедшие в театральную версию фильма, а также альтернативный финал.

MediaInfo
Общее
Уникальный идентификатор : 242285143599095895889494786636319861888 (0xB6466BDB380E6A598EF88A45F418AC80)
Полное имя : I:\Гангстер\American Gangster[R.G.Daredevil].mkv
Формат : Matroska
Версия формата : Version 2
Размер файла : 5,47 Гбайт
Продолжительность : 2 ч. 55 м.
Общий поток : 4456 Кбит/сек
Название фильма : American Gangster
Дата кодирования : UTC 2010-06-06 12:24:54
Программа кодирования : mkvmerge v3.3.0 ('Language') built on Mar 24 2010 14:59:24
Библиотека кодирования : libebml v0.8.0 + libmatroska v0.9.0

Видео
Идентификатор : 1
Формат : AVC
Формат/Информация : Advanced Video Codec
Профиль формата : High@L4.1
Параметр CABAC формата : Да
Параметр ReFrames формата : 9 кадров
Идентификатор кодека : V_MPEG4/ISO/AVC
Продолжительность : 2 ч. 55 м.
Битрейт : 3024 Кбит/сек
Ширина : 1280 пикселей
Высота : 694 пикселя
Соотношение сторон : 1,85:1
Частота кадров : 23,976 кадра/сек
Цветовое пространство : YUV
Субдискретизация насыщенности : 4:2:0
Битовая глубина : 8 бит
Тип развёртки : Прогрессивная
Бит/(Пиксели*Кадры) : 0.142
Размер потока : 3,71 Гбайт (68%)
Заголовок : American Gangster
Библиотека кодирования : x264 core 98 r1629 2e81ce1
Настройки программы : cabac=1 / ref=9 / deblock=1:-2:-2 / analyse=0x3:0x133 / me=umh / subme=9 / psy=1 / psy_rd=1.10:0.00 / mixed_ref=1 / me_range=64 / chroma_me=1 / trellis=2 / 8x8dct=1 / cqm=0 / deadzone=21,11 / fast_pskip=0 / chroma_qp_offset=-2 / threads=9 / sliced_threads=0 / nr=0 / decimate=1 / interlaced=0 / constrained_intra=0 / bframes=16 / b_pyramid=2 / b_adapt=2 / b_bias=0 / direct=3 / weightb=1 / weightp=2 / keyint=250 / keyint_min=25 / scenecut=40 / intra_refresh=0 / rc_lookahead=60 / rc=crf / mbtree=0 / crf=19.1 / qcomp=0.60 / qpmin=10 / qpmax=51 / qpstep=4 / vbv_maxrate=50000 / vbv_bufsize=50000 / crf_max=0.0 / ip_ratio=1.40 / pb_ratio=1.30 / aq=1:1.10 / nal_hrd=none
Язык : English
Default : Нет
Forced : Нет

Аудио #1
Идентификатор : 2
Формат : AC-3
Формат/Информация : Audio Coding 3
Расширение режима : CM (complete main)
Параметр Endianness формата : Big
Идентификатор кодека : A_AC3
Продолжительность : 2 ч. 55 м.
Вид битрейта : Постоянный
Битрейт : 448 Кбит/сек
Каналы : 6 каналов
Расположение каналов : Front: L C R, Side: L R, LFE
Частота : 48,0 КГц
Битовая глубина : 16 бит
Метод сжатия : С потерями
Размер потока : 564 Мбайт (10%)
Заголовок : DD 5.1 48 KHz 448 kbps[Dub]
Язык : Russian
Default : Да
Forced : Нет

Аудио #2
Идентификатор : 3
Формат : AC-3
Формат/Информация : Audio Coding 3
Расширение режима : CM (complete main)
Параметр Endianness формата : Big
Идентификатор кодека : A_AC3
Продолжительность : 2 ч. 55 м.
Вид битрейта : Постоянный
Битрейт : 448 Кбит/сек
Каналы : 6 каналов
Расположение каналов : Front: L C R, Side: L R, LFE
Частота : 48,0 КГц
Битовая глубина : 16 бит
Метод сжатия : С потерями
Размер потока : 564 Мбайт (10%)
Заголовок : DD 5.1 48 KHz 448 kbps[MVO]
Язык : Russian
Default : Нет
Forced : Нет

Аудио #3
Идентификатор : 4
Формат : AC-3
Формат/Информация : Audio Coding 3
Расширение режима : CM (complete main)
Параметр Endianness формата : Big
Идентификатор кодека : A_AC3
Продолжительность : 2 ч. 55 м.
Вид битрейта : Постоянный
Битрейт : 448 Кбит/сек
Каналы : 6 каналов
Расположение каналов : Front: L C R, Side: L R, LFE
Частота : 48,0 КГц
Битовая глубина : 16 бит
Метод сжатия : С потерями
Размер потока : 564 Мбайт (10%)
Заголовок : DD 5.1 48 KHz 448 kbps[Original]
Язык : English
Default : Нет
Forced : Нет

Текст #1
Идентификатор : 5
Формат : UTF-8
Идентификатор кодека : S_TEXT/UTF8
Идентификатор кодека/Информация : UTF-8 Plain Text
Заголовок : Forced
Язык : Russian
Default : Да
Forced : Нет

Текст #2
Идентификатор : 6
Формат : UTF-8
Идентификатор кодека : S_TEXT/UTF8
Идентификатор кодека/Информация : UTF-8 Plain Text
Заголовок : Full
Язык : Russian
Default : Нет
Forced : Нет

Текст #3
Идентификатор : 7
Формат : UTF-8
Идентификатор кодека : S_TEXT/UTF8
Идентификатор кодека/Информация : UTF-8 Plain Text
Заголовок : Full
Язык : English
Default : Нет
Forced : Нет

Текст #4
Идентификатор : 8
Формат : UTF-8
Идентификатор кодека : S_TEXT/UTF8
Идентификатор кодека/Информация : UTF-8 Plain Text
Заголовок : Full[SDH]
Язык : English
Default : Нет
Forced : Нет
Свернуть
Скриншоты
Изображение

Изображение

Изображение

Изображение
Свернуть
Не в сети
Профиль  
 Добавлено: 2012-09-15 16:50 (спустя 3 месяца 6 дней)
Стаж: 6 лет 5 месяцев
Сообщений: 175
Лайков: 2
Спасибо,за отличное кино.Актёры постарались.
Не в сети
Профиль  
 Добавлено: 2013-02-03 22:53 (спустя 4 месяца 18 дней)
Аватара пользователя
Стаж: 7 лет 6 месяцев
Возраст: 35
Сообщений: 147
отличный фильм
Не в сети
Профиль  
 Добавлено: 2015-07-31 18:38 (спустя 2 года 5 месяцев)
Стаж: 4 года 4 месяца
Сообщений: 3
Раздайте :du_ma_et:
Не в сети
Профиль  
Начать новую темуОтветить на тему  [ Сообщений: 4 ] 
Вы не можете начинать темы
Вы не можете отвечать на сообщения
Вы не можете редактировать свои сообщения
Вы не можете удалять свои сообщения