Правила форума

  • В этом разделе создание новых тем Запрещено.
  • Для создания новых тем пользуйтесь Корневым разделом DVD и HD фильмы.
Начать новую темуОтветить на тему  [ Сообщений: 2 ] 
Торрент файл
Размер: 13.55 GB • Зарегистрирован: 4 года 6 месяцев • Статус: Проверено
Скачан: 9 раз • Желающих скачать: 0 • Поблагодарили: 6 раз
 Раздают: 0  |  0 KB/s  ]   Качают: 0  |  0 KB/s  ] 
 Полного источника не было 2 года 10 месяцев 
Сообщения
 Добавлено: 2012-05-22 17:21
Модератор релиз-группы
Аватара пользователя
Стаж: 9 лет 1 месяц
Возраст: 97
Сообщений: 11660
Спасибок: 6533
Лайков: 269
Гангстер / Hoodlum

Изображение


Страна: США
Жанр: Боевик
Год выпуска: 1997
Продолжительность: 02:04:25
Перевод: Профессиональный (многоголосый закадровый)

Режиссер: Билл Дьюк (Bill Duke)

В ролях: Лоуренс Фишберн /Laurence Fishburne/, Тим Рот /Tim Roth/, Ванесса Л. Уильямс /Vanessa L. Williams/, Энди Гарсиа /Andy Garcia/, Сисили Тайсон /Cicely Tyson/, Чи МакБрайд /Chi McBride/

Описание: 30-е годы. Теневая преступность выплескивается на улицы Нью-Йорка, и смертельная вражда стравливат гангстера с гангстером. Бампи Джонсон, глава гарлемских рэкетиров, преисполнен гордости и чувства собственного превосходства. Когда дикий, необузданный Голландец Шульц совершает серию дерзких налетов на его территорию, Бампи понимает, что для победы над Голландцем необходимо принять его правила игры. По мере того, как свирепая, непримиримая война набирает обороты, все, включая личную жизнь Бампи, выходитиз-под контроля. Помочь может лишь крайнее средство - привлечение на свою сторону самого страшного и могущественного гангстера в истории мафии - Лаки Лючано...
Изображение

Качество: HDTVRip 1080p
Формат: MKV
Видео: Video: MPG2/ 1920x1088 (16:9)/ 25.000 fps /15.4 Mbps
Аудио: Audio: MP2 Audio / 2.0 ch / 224 Kbps / 48 KHz

скриншоты
Изображение

Изображение

Изображение
Свернуть
Mi
Format : Matroska
Format version : Version 2
File size : 13.5 GiB
Duration : 2h 4mn
Overall bit rate : 15.6 Mbps
Encoded date : UTC 2010-07-21 11:12:30
Writing application : mkvmerge v4.1.1 ('Bouncin' Back') сборка от Jul 3 2010 22:54:08
Writing library : libebml v1.0.0 + libmatroska v1.0.0

Video
ID : 1
Format : MPEG Video
Format version : Version 2
Format profile : High@High
Format settings, BVOP : No
Format settings, Matrix : Default
Codec ID : V_MPEG2
Codec ID/Info : MPEG 1 or 2 Video
Duration : 2h 4mn
Bit rate : 15.1 Mbps
Maximum bit rate : 15.4 Mbps
Width : 1 920 pixels
Height : 1 088 pixels
Display aspect ratio : 16:9
Original display aspect ratio : 16:9
Frame rate : 50.000 fps
Original frame rate : 25.000 fps
Standard : PAL
Color space : YUV
Chroma subsampling : 4:2:0
Bit depth : 8 bits
Scan type : Progressive
Scan order : Top Field First
Compression mode : Lossy
Bits/(Pixel*Frame) : 0.144
Stream size : 13.1 GiB (97%)
Default : Yes
Forced : No
Color primaries : BT.470-2 System B, BT.470-2 System G
Transfer characteristics : BT.470-2 System B, BT.470-2 System G
Matrix coefficients : BT.470-2 System B, BT.470-2 System G

Audio
ID : 2
Format : MPEG Audio
Format version : Version 1
Format profile : Layer 2
Muxing mode : Header stripping
Codec ID : A_MPEG/L2
Codec ID/Hint : MP2
Duration : 2h 4mn
Bit rate mode : Constant
Bit rate : 224 Kbps
Channel(s) : 2 channels
Sampling rate : 48.0 KHz
Compression mode : Lossy
Delay relative to video : -200ms
Stream size : 199 MiB (1%)
Default : Yes
Forced : No
Свернуть
_________________
Изображение
Не в сети
Профиль  
 Добавлено: 2012-06-09 15:59 (спустя 17 дней)
Аватара пользователя
Стаж: 8 лет 3 месяца
Возраст: 43
Сообщений: 3290
Спасибок: 21012
Лайков: 3
бух :)
_________________
Изображение
Не в сети
Профиль  
Начать новую темуОтветить на тему  [ Сообщений: 2 ] 
Вы не можете начинать темы
Вы не можете отвечать на сообщения
Вы не можете редактировать свои сообщения
Вы не можете удалять свои сообщения