Правила форума

  • В этом разделе создание новых тем Запрещено.
  • Для создания новых тем пользуйтесь Корневым разделом DVD и HD фильмы.
Начать новую темуОтветить на тему  [ Сообщений: 10 ] 
Торрент файл
Размер: 6.66 GB • Зарегистрирован: 5 лет 8 месяцев • Статус: Проверено
Скачан: 649 раз • Желающих скачать: 0 • Поблагодарили: 107 раз
 Раздают: 0  |  0 KB/s  ]   Качают: 0  |  0 KB/s  ] 
 Полного источника не было 27 дней 
Сообщения
 Добавлено: 2011-04-05 09:04
Top-releaser
Аватара пользователя
Стаж: 8 лет 5 месяцев
Сообщений: 6859
Спасибок: 440298
Лайков: 34
Гарри Поттер и Дары смерти: Часть 1
Harry Potter and the Deathly Hallows: Part 1

Изображение

Год выпуска: 2010
Страна: США, Великобритания
Слоган: «Опасность повсюду»

Жанр: фэнтези, драма, детектив, приключения
Продолжительность: 02:26:05
Перевод: Профессиональный (полное дублирование)

Режиссер: Дэвид Йэтс
Сценарий: Стивен Кловз, Дж.К. Роулинг
Продюсер: Дэвид Баррон, Дэвид Хейман, Дж.К. Роулинг, Тим Льюис, Джон Трехи
Оператор: Эдуарду Серра
Композитор: Александр Деспла

В ролях: Дэниэл Рэдклифф, Николай Быстров, Руперт Гринт, Алексей Костричкин, Эмма Уотсон, Лина Иванова, Том Фелтон, Велимир Русаков, Бонни Райт, Полина Чекан, Алан Рикман, Алексей Рязанцев
Дублёры: Николай Быстров, Алексей Костричкин, Лина Иванова, Велимир Русаков, Полина Чекан, Алексей Рязанцев, Всеволод Кузнецов, Наталия Вдовина, Василий Бочкарев, Борис Быстров, Василий Стоноженко, Маша Иващенко
Бюджет: 150 000 000
Сборы в США: $294 980 434
Сборы в России: $25 460 553
Сборы в мире: $952 220 434

Мировая премьера: 11 ноября 2010
Релиз на DVD: 14 апреля 2011, «CP-Digital»
Релиз на Blu-ray: 14 апреля 2011, «CP-Digital»
Описание: Гарри Поттера ждёт самое страшное испытание в жизни - смертельная схватка с Волан-де-Мортом. Ждать помощи не от кого - Гарри одинок, как никогда… Друзья и враги Гарри предстают в совершенно неожиданном свете. Граница между Добром и Злом становится всё призрачнее…
Изображение 7.80 (61 826) Изображение 7.733 (31 800)
MPAA: Изображение - Детям до 13 лет просмотр не желателен
Релизит и раздаёт группа: Изображение
Изображение
Формат: MKV
Качество: BDRip 720p R5 [EbP]
Видео: 5500 kb/s, 1280x534, 0.328
Аудио: Russian: AC3, 384 kb/s (6 ch) / English: AC3, 640 kb/s (6 ch)
Субтитры: Russian [Full, Forced], English [SDH]
Размер: 6.65 GB

NFO
H:\Garri.Potter.i.Dary.Smerti.Ch.1.2010.D.BDRip.720p.UNIONGANG.mkv
General
Complete name : H:\Garri.Potter.i.Dary.Smerti.Ch.1.2010.D.BDRip.720p.UNIONGANG.mkv
Format : Matroska
File size : 6.66 GiB
Duration : 2h 26mn
Overall bit rate : 6 525 Kbps
Movie name : Harry.Potter.And.The.Deathly.Hallows.Part.1.2010.720p.BluRay.DD5.1.x264-EbP-UNIONGANG
Encoded date : UTC 2011-04-05 04:48:19
Writing application : mkvmerge v3.4.0 ('Rapunzel') сборка от May 15 2010 09:38:20
Writing library : libebml v0.8.0 + libmatroska v0.9.0
Video #1
ID : 1
Format : AVC
Format/Info : Advanced Video Codec
Format profile : High@L4.1
Format settings, CABAC : Yes
Format settings, ReFrames : 12 frames
Muxing mode : Container profile=Unknown@4.1
Codec ID : V_MPEG4/ISO/AVC
Duration : 2h 25mn
Bit rate : 5 372 Kbps
Nominal bit rate : 5 500 Kbps
Width : 1 280 pixels
Height : 534 pixels
Display aspect ratio : 2.35:1
Frame rate : 23.976 fps
Resolution : 24 bits
Colorimetry : 4:2:0
Scan type : Progressive
Bits/(Pixel*Frame) : 0.328
Stream size : 5.48 GiB (82%)
Title : Harry.Potter.And.The.Deathly.Hallows.Part.1.2010.720p.BluRay.DD5.1.x264-EbP
Writing library : x264 core 114 r1924 08d04a4
Encoding settings : cabac=1 / ref=12 / deblock=1:-3:-3 / analyse=0x3:0x113 / me=tesa / subme=10 / psy=1 / psy_rd=1.20:0.00 / mixed_ref=1 / me_range=16 / chroma_me=1 / trellis=2 / 8x8dct=1 / cqm=0 / deadzone=21,11 / fast_pskip=0 / chroma_qp_offset=-2 / threads=6 / sliced_threads=0 / nr=0 / decimate=0 / interlaced=0 / constrained_intra=0 / bframes=9 / b_pyramid=2 / b_adapt=2 / b_bias=0 / direct=3 / weightb=1 / open_gop=0 / weightp=2 / keyint=250 / keyint_min=23 / scenecut=40 / intra_refresh=0 / rc=2pass / mbtree=0 / bitrate=5500 / ratetol=1.0 / qcomp=0.75 / qpmin=0 / qpmax=69 / qpstep=4 / cplxblur=20.0 / qblur=0.5 / ip_ratio=1.40 / pb_ratio=1.30 / aq=1:0.80
Language : English
Audio #2
ID : 2
Format : AC-3
Format/Info : Audio Coding 3
Codec ID : A_AC3
Duration : 2h 26mn
Bit rate mode : Constant
Bit rate : 384 Kbps
Channel(s) : 6 channels
Channel positions : Front: L C R, Surround: L R, LFE
Sampling rate : 48.0 KHz
Stream size : 401 MiB (6%)
Title : DD 5.1 Russian @ 384 kbps
Language : Russian
Audio #3
ID : 3
Format : AC-3
Format/Info : Audio Coding 3
Codec ID : A_AC3
Duration : 2h 26mn
Bit rate mode : Constant
Bit rate : 640 Kbps
Channel(s) : 6 channels
Channel positions : Front: L C R, Surround: L R, LFE
Sampling rate : 48.0 KHz
Stream size : 669 MiB (10%)
Title : DD 5.1 English @ 640 kbps
Language : English
Text #4
ID : 4
Format : UTF-8
Codec ID : S_TEXT/UTF8
Codec ID/Info : UTF-8 Plain Text
Title : Russian, Forced
Language : Russian
Text #5
ID : 5
Format : UTF-8
Codec ID : S_TEXT/UTF8
Codec ID/Info : UTF-8 Plain Text
Title : Russian, Full
Language : Russian
Text #6
ID : 6
Format : UTF-8
Codec ID : S_TEXT/UTF8
Codec ID/Info : UTF-8 Plain Text
Title : English SDH
Language : English
Свернуть

"Знаете ли Вы, что..."
  • Возглавить постановку могли М. Найт Шьямалан и Гильермо Дель Торо.
  • Дэвид Холмс, каскадер и дублер Даниэла Рэдклиффа, получил серьёзную травму спины при падении во время производства взрыва.
  • Джон Уильямс, композитор первых трех частей о Гарри Поттере, выражал интерес вернуться к работе в Гарри Поттер и Дары смерти. Часть 1.
  • Билла Уизли играет Домналл Глисон, сын актера Брендана Глисона.
Свернуть
"Скриншоты"
Изображение
Изображение
Изображение
Изображение
Свернуть
Не в сети
Профиль  
 Добавлено: 2011-04-05 12:58 (спустя 3 часа)
Стаж: 8 лет 5 месяцев
Сообщений: 2
А 1080р будет?
Не в сети
Профиль  
 Добавлено: 2011-04-05 13:17 (спустя 18 минут)
Аватара пользователя
Стаж: 7 лет
Сообщений: 183
Размер: 6.66 GB •
Чарующий размерчик :)
_________________
Юзербары
Изображение
Изображение
Изображение
Изображение
Свернуть
Не в сети
Профиль  
 Добавлено: 2011-04-05 13:24 (спустя 6 минут)
Руководитель релиз-группы
Аватара пользователя
Стаж: 7 лет
Возраст: 24
Сообщений: 10839
Спасибок: 2377
Лайков: 394
Крута спасибо :)
Не в сети
Профиль  
 Добавлено: 2011-04-05 20:27 (спустя 7 часов)
Top-releaser
Аватара пользователя
Стаж: 7 лет 11 месяцев
Возраст: 39
Сообщений: 498
Спасибок: 4718

Am:

В ролях: Дэниэл Рэдклифф, Николай Быстров, Руперт Гринт, Алексей Костричкин, Эмма Уотсон, Лина Иванова, Том Фелтон, Велимир Русаков, Бонни Райт, Полина Чекан, Алан Рикман, Алексей Рязанцев
:)
Am, Вы просто Задорнов. Наконец-то российские актёры дубляжа начали сниматься в настоящих блокбастерах.
_________________
Продам несколько кукол Монстр Хай (Monster High) по разумной цене.
Не в сети
Профиль  
 Добавлено: 2011-04-07 18:48 (спустя 1 день 22 часа)
Аватара пользователя
Стаж: 8 лет 11 месяцев
Сообщений: 170
Спасибок: 139
лицензия или нет ?)
релиз на Blu-Ray 14 апреля 2011, «CP-Digital», ...
Не в сети
Профиль  
 Добавлено: 2011-04-07 22:18 (спустя 3 часа)
Руководитель релиз-группы
Аватара пользователя
Стаж: 7 лет
Возраст: 24
Сообщений: 10839
Спасибок: 2377
Лайков: 394
davidson все норм. качай :)
Не в сети
Профиль  
 Добавлено: 2011-04-09 20:23 (спустя 1 день 22 часа)
Аватара пользователя
Стаж: 8 лет 1 месяц
Возраст: 26
Сообщений: 1078
Спасибок: 3182
Лайков: 6

МИЛЯГА:

Am:

В ролях: Дэниэл Рэдклифф, Николай Быстров, Руперт Гринт, Алексей Костричкин, Эмма Уотсон, Лина Иванова, Том Фелтон, Велимир Русаков, Бонни Райт, Полина Чекан, Алан Рикман, Алексей Рязанцев
:)
Am, Вы просто Задорнов. Наконец-то российские актёры дубляжа начали сниматься в настоящих блокбастерах.
:-D
_________________
Изображение
Не в сети
Профиль  
 Добавлено: 2011-10-02 08:50 (спустя 5 месяцев 22 дня)
Аватара пользователя
Стаж: 5 лет 6 месяцев
Сообщений: 27
Качество кул, спасибо за раздачу.
Не в сети
Профиль  
 Добавлено: 2011-11-28 22:32 (спустя 1 месяц 26 дней)
Аватара пользователя
Стаж: 7 лет 5 месяцев
Возраст: 29
Сообщений: 118
Спасибок: 3
Лайков: 2
Спасибо за раздачу :hi_hi_hi:
Не в сети
Профиль  
Начать новую темуОтветить на тему  [ Сообщений: 10 ] 
Вы не можете начинать темы
Вы не можете отвечать на сообщения
Вы не можете редактировать свои сообщения
Вы не можете удалять свои сообщения