Правила форума

  • В этом разделе создание новых тем Запрещено.
  • Для создания новых тем пользуйтесь Корневым разделом DVD и HD фильмы.
Начать новую темуОтветить на тему  [ Сообщений: 6 ] 
Торрент файл
Размер: 11.86 GB • Зарегистрирован: 5 лет 1 месяц • Статус: Проверено
Скачан: 274 раза • Желающих скачать: 0 • Поблагодарили: 62 раза
 Раздают: 0  |  0 KB/s  ]   Качают: 0  |  0 KB/s  ] 
 Полного источника не было 1 день 13 часов 
Сообщения
 Добавлено: 2011-11-10 22:57
Руководитель релиз-группы
Аватара пользователя
Стаж: 8 лет 6 месяцев
Возраст: 25
Сообщений: 7578
Спасибок: 51915
Лайков: 14
Гарри Поттер и Дары смерти: Часть 2

Harry Potter and the Deathly Hallows: Part 2

«Все закончится»


Изображение


Год выпуска: 2011
Страна: США / Великобритания, Heyday Films
Жанр: Боевик, фэнтези, приключения, детектив
Продолжительность: 02:10:26
Перевод: Профессиональный (полное дублирование) Лицензия
Субтитры: Нет
Режиссер: Дэвид Йэтс
Сценарий: Стивен Кловз, Дж.К. Роулинг
Продюсер: Дэвид Баррон, Дэвид Хейман, Дж.К. Роулинг
Оператор: Эдуарду Серра
Композитор: Александр Деспла
Художник: Стюарт Крэйг, Эндрю Эклэнд-Сноу, Аластер Баллок
Монтаж: Марк Дэй
В ролях: Дэниэл Рэдклифф, Руперт Гринт, Эмма Уотсон, Рэйф Файнс, Алан Рикман, Хелена Бонем Картер, Том Фелтон, Гари Олдман, Майкл Гэмбон, Мэгги Смит
Описание: В грандиозной последней главе битва между добрыми и злыми силами мира волшебников перерастает во всеобщую войну. Ставки ещё никогда не были так высоки, а поиск убежища — столь сложен. И быть может именно Гарри Поттеру придется пожертвовать всем в финальном сражении с Волан-де-Мортом. Способен ли наш герой спасти мир? И всё закончится здесь.
Качество: BDRip 1080p
Формат: MKV
Видео: 10.2 mb/s, 1920x800, 23.976 fps, V_MPEG4/ISO/AVC
Аудио: [rus] AC3, 640 kb/s, 5.1, 48 kHz, 16 bits
Аудио 2: [ukr] AC3, 640 kb/s, 5.1, 48 kHz, 16 bits
Аудио 3: [eng] DTS, 1510 kb/s, 5.1, 48 kHz, 24 bits
"MediaInfo"

General
Complete name : Harry.Potter.and.the.Deathly.Hallows.Part.2.2011.D.BDRip.1080p.mkv
Format : Matroska
File size : 11.9 GiB
Duration : 2h 10mn
Overall bit rate : 13.0 Mbps
Movie name : BlackSnow
Encoded date : UTC 2011-11-10 16:34:19
Writing application : mkvmerge v3.4.0 ('Rapunzel') сборка от May 15 2010 09:38:20
Writing library : libebml v0.8.0 + libmatroska v0.9.0

Video
ID : 1
Format : AVC
Format/Info : Advanced Video Codec
Format profile : High@L4.1
Format settings, CABAC : Yes
Format settings, ReFrames : 5 frames
Codec ID : V_MPEG4/ISO/AVC
Duration : 2h 10mn
Bit rate : 10.2 Mbps
Width : 1 920 pixels
Height : 800 pixels
Display aspect ratio : 2.40:1
Frame rate : 23.976 fps
Color space : YUV
Chroma subsampling : 4:2:0
Bit depth : 8 bits
Scan type : Progressive
Bits/(Pixel*Frame) : 0.278
Stream size : 9.08 GiB (77%)
Title : Harry.Potter.and.the.Deathly.Hallows.Part.2.2011.1080p.BluRay.DTS.x264-HiDt
Writing library : x264 core 119 r2106 07efeb4
Encoding settings : cabac=1 / ref=5 / deblock=1:-3:-3 / analyse=0x3:0x113 / me=tesa / subme=11 / psy=1 / psy_rd=0.99:0.04 / mixed_ref=1 / me_range=32 / chroma_me=1 / trellis=2 / 8x8dct=1 / cqm=0 / deadzone=21,11 / fast_pskip=0 / chroma_qp_offset=-3 / threads=12 / sliced_threads=0 / nr=0 / decimate=1 / interlaced=0 / bluray_compat=0 / constrained_intra=0 / bframes=6 / b_pyramid=2 / b_adapt=2 / b_bias=0 / direct=3 / weightb=1 / open_gop=0 / weightp=2 / keyint=250 / keyint_min=23 / scenecut=40 / intra_refresh=0 / rc_lookahead=80 / rc=2pass / mbtree=1 / bitrate=10230 / ratetol=1.0 / qcomp=0.60 / qpmin=0 / qpmax=69 / qpstep=4 / cplxblur=20.0 / qblur=0.5 / vbv_maxrate=45000 / vbv_bufsize=40000 / nal_hrd=none / ip_ratio=1.40 / aq=2:0.90 / zones=169800,187658,b=0.1
Language : English

Audio #1
ID : 2
Format : AC-3
Format/Info : Audio Coding 3
Mode extension : CM (complete main)
Codec ID : A_AC3
Duration : 2h 10mn
Bit rate mode : Constant
Bit rate : 640 Kbps
Channel(s) : 6 channels
Channel positions : Front: L C R, Side: L R, LFE
Sampling rate : 48.0 KHz
Bit depth : 16 bits
Stream size : 597 MiB (5%)
Title : DUB CEE
Language : Russian

Audio #2
ID : 3
Format : AC-3
Format/Info : Audio Coding 3
Mode extension : CM (complete main)
Codec ID : A_AC3
Duration : 2h 10mn
Bit rate mode : Constant
Bit rate : 640 Kbps
Channel(s) : 6 channels
Channel positions : Front: L C R, Side: L R, LFE
Sampling rate : 48.0 KHz
Bit depth : 16 bits
Stream size : 597 MiB (5%)
Title : DUB CЕE
Language : Ukrainian

Audio #3
ID : 4
Format : DTS
Format/Info : Digital Theater Systems
Codec ID : A_DTS
Duration : 2h 10mn
Bit rate mode : Constant
Bit rate : 1 510 Kbps
Channel(s) : 6 channels
Channel positions : Front: L C R, Side: L R, LFE
Sampling rate : 48.0 KHz
Bit depth : 24 bits
Stream size : 1.38 GiB (12%)
Title : Original
Language : English

Text #1
ID : 5
Format : UTF-8
Codec ID : S_TEXT/UTF8
Codec ID/Info : UTF-8 Plain Text
Title : Full
Language : Russian

Text #2
ID : 6
Format : UTF-8
Codec ID : S_TEXT/UTF8
Codec ID/Info : UTF-8 Plain Text
Title : SDH
Language : English

Menu
00:00:00.000 : :1. Shell Cottage
00:02:58.219 : :2. Griphook's Price
00:06:21.172 : :3. He's After You
00:10:21.871 : :4. Gringotts
00:14:27.992 : :5. Copping the Cup
00:20:05.621 : :6. Exit the Dragon
00:22:47.783 : :7. Final Hiding Place
00:25:38.620 : :8. Aberforth Dumbledore
00:30:46.803 : :9. Hogwarts Reunion
00:34:33.654 : :10. Give Me Harry Potter
00:40:32.263 : :11. Duty To Our School
00:45:52.249 : :12. You Need Only Ask
00:50:15.470 : :13. Blow For Blow
00:54:41.027 : :14. Finding the Diadem
00:59:01.245 : :15. Fiendfyre
01:03:42.067 : :16. He Will Come To Me
01:07:06.063 : :17. Your Mother's Eyes
01:11:24.488 : :18. Confront Your Fate
01:14:38.932 : :19. Visions of a Life
01:23:40.848 : :20. I Open At the Close
01:29:17.727 : :21. The Boy Who Lived
01:31:25.020 : :22. King's Cross
01:36:37.666 : :23. Declare Yourself
01:41:09.104 : :24. Not Over
01:46:42.312 : :25. The Wand's Choice
01:50:18.361 : :26. The Wizard's Choice
01:54:16.682 : :27. Nineteen Years Later
01:58:12.876 : :28. End Credits
Свернуть
"Скриншоты"

Изображение
Изображение
Изображение
Свернуть
Не в сети
Профиль  
 Добавлено: 2011-11-11 13:41 (спустя 14 часов)
Стаж: 8 лет 10 месяцев
Сообщений: 172
лицензия?
Не в сети
Профиль  
 Добавлено: 2011-11-11 14:37 (спустя 55 минут)
Руководитель релиз-группы
Аватара пользователя
Стаж: 8 лет 6 месяцев
Возраст: 25
Сообщений: 7578
Спасибок: 51915
Лайков: 14

gamer13:

лицензия?
Да.. она самая :a_g_a:
Не в сети
Профиль  
 Добавлено: 2011-11-11 20:35 (спустя 5 часов)
Top-seeder
Аватара пользователя
Стаж: 6 лет 4 месяца
Сообщений: 532
Спасибок: 653
Лайков: 5
есть ли существенные отличия от этого релиза: Гарри Поттер и Дары смерти: Часть 2 / Harry Potter and the Deathly Hallows: Part 2 (Дэвид Йэтс) [2011 г., Боевик, фэнтези, приключения, детектив, BDRip 1080p] R5 11.28 GB - стоит перекачивать?
Не в сети
Профиль  
 Добавлено: 2011-11-11 21:04 (спустя 28 минут)
Top-releaser
Аватара пользователя
Стаж: 8 лет 7 месяцев
Сообщений: 1286
Спасибок: 3421
Лайков: 7
А тем, что ту модератор поглотить забыл :)
Не в сети
Профиль  
 Добавлено: 2012-06-17 01:27 (спустя 7 месяцев)
Аватара пользователя
Стаж: 6 лет 2 месяца
Возраст: 19
Сообщений: 502
Спасибок: 341
все супер) спасибо) :)
_________________
Изображение
Обо мне
Комп: INTEL CORE I5 2500k box\ASUS P8P67 DELUXE\MSI GTX560-TI Twin Frozr II OC 1024Mb\Corsair XMS3\THERMALTAKE V6 BlacX Edition VM100M1W2Z ATX\THERMALTAKE TR2 RX 650W\Thermaltake Frio OCK\HITACHI Deskstar 7K3000 HDS723015BLA642 1.5Тб, SATA III\NEC DVD-RW
Ноут: INTEL CORE I5 2450M\ AMD RADEON 7670M 2GB\ 6GB DDR3\ HDD 750 GB\ Wi-Fi b/g/n +1TB seagate
Nikon D5100
TN iPad
Изображение
Свернуть
Не в сети
Профиль  
Начать новую темуОтветить на тему  [ Сообщений: 6 ] 
Вы не можете начинать темы
Вы не можете отвечать на сообщения
Вы не можете редактировать свои сообщения
Вы не можете удалять свои сообщения