Правила форума

  • В этом разделе создание новых тем Запрещено.
  • Для создания новых тем пользуйтесь Корневым разделом DVD и HD фильмы.
Начать новую темуОтветить на тему  [ Сообщений: 5 ] 
Торрент файл
Размер: 20.47 GB • Зарегистрирован: 5 лет • Статус: Проверено
Скачан: 203 раза • Желающих скачать: 0 • Поблагодарили: 54 раза
 Раздают: 0  |  0 KB/s  ]   Качают: 0  |  0 KB/s  ] 
 Полного источника не было 1 день 
Сообщения
 Добавлено: 2011-11-10 23:20
Руководитель релиз-группы
Аватара пользователя
Стаж: 8 лет 6 месяцев
Возраст: 25
Сообщений: 7578
Спасибок: 51914
Лайков: 14
Гарри Поттер и Дары смерти: Часть 2

Harry Potter and the Deathly Hallows: Part 2

«Все закончится»


Изображение


Год выпуска: 2011
Страна: США / Великобритания, Heyday Films
Жанр: Боевик, фэнтези, приключения, детектив
Продолжительность: 02:10:26
Перевод: Профессиональный (полное дублирование) Лицензия
Субтитры: Нет
Режиссер: Дэвид Йэтс
Сценарий: Стивен Кловз, Дж.К. Роулинг
Продюсер: Дэвид Баррон, Дэвид Хейман, Дж.К. Роулинг
Оператор: Эдуарду Серра
Композитор: Александр Деспла
Художник: Стюарт Крэйг, Эндрю Эклэнд-Сноу, Аластер Баллок
Монтаж: Марк Дэй
В ролях: Дэниэл Рэдклифф, Руперт Гринт, Эмма Уотсон, Рэйф Файнс, Алан Рикман, Хелена Бонем Картер, Том Фелтон, Гари Олдман, Майкл Гэмбон, Мэгги Смит
Описание: В грандиозной последней главе битва между добрыми и злыми силами мира волшебников перерастает во всеобщую войну. Ставки ещё никогда не были так высоки, а поиск убежища — столь сложен. И быть может именно Гарри Поттеру придется пожертвовать всем в финальном сражении с Волан-де-Мортом. Способен ли наш герой спасти мир? И всё закончится здесь.
Качество: BDRip 1080p
Формат: MKV
Видео: MPEG-4 AVC Video ~ 17346 kbps / 1920х1080 / 23.976 fps / 16:9 / High Profile 4.1
Аудио: [rus] Dolby Digital Audio 640 kbps 5.1 / 48 kHz / 640 kbps / DN -4dB
Аудио 2: [ukr] Dolby Digital Audio 640 kbps 5.1 / 48 kHz / 640 kbps / DN -4dB
Аудио 3: [eng] DTS-HD Master Audio 3544 kbps 5.1 / 48 kHz / 3841 kbps / 24-bit (DTS Core: 5.1 / 48 kHz / 1509 kbps / 24-bit)
"MediaInfo"

Формат : Matroska
Версия формата : Version 2
Размер файла : 20,5 Гбайт
Продолжительность : 2 ч. 10 м.
Общий поток : 22,5 Мбит/сек
Дата кодирования : UTC 2011-11-10 13:12:04
Программа кодирования : mkvmerge v3.3.0 ('Language') built on Mar 24 2010 14:59:24
Библиотека кодирования : libebml v0.8.0 + libmatroska v0.9.0

Видео
Идентификатор : 1
Формат : AVC
Формат/Информация : Advanced Video Codec
Профиль формата : High@L4.1
Параметр CABAC формата : Да
Параметр ReFrames формата : 2 кадра
Идентификатор кодека : V_MPEG4/ISO/AVC
Продолжительность : 2 ч. 10 м.
Вид битрейта : Переменный
Битрейт : 18,3 Мбит/сек
Ширина : 1920 пикселей
Высота : 1080 пикселей
Соотношение сторон : 16:9
Частота кадров : 23,976 кадра/сек
Цветовое пространство : YUV
Субдискретизация насыщенности : 4:2:0
Битовая глубина : 8 бит
Тип развёртки : Прогрессивная
Бит/(Пиксели*Кадры) : 0.369
Размер потока : 16,7 Гбайт (82%)
Язык : English

Аудио #1
Идентификатор : 2
Формат : AC-3
Формат/Информация : Audio Coding 3
Расширение режима : CM (complete main)
Идентификатор кодека : A_AC3
Продолжительность : 2 ч. 10 м.
Вид битрейта : Постоянный
Битрейт : 640 Кбит/сек
Каналы : 6 каналов
Расположение каналов : Front: L C R, Side: L R, LFE
Частота : 48,0 КГц
Битовая глубина : 16 бит
Метод сжатия : С потерями
Размер потока : 597 Мбайт (3%)
Язык : Russian

Аудио #2
Идентификатор : 3
Формат : AC-3
Формат/Информация : Audio Coding 3
Расширение режима : CM (complete main)
Идентификатор кодека : A_AC3
Продолжительность : 2 ч. 10 м.
Вид битрейта : Постоянный
Битрейт : 640 Кбит/сек
Каналы : 6 каналов
Расположение каналов : Front: L C R, Side: L R, LFE
Частота : 48,0 КГц
Битовая глубина : 16 бит
Метод сжатия : С потерями
Размер потока : 597 Мбайт (3%)
Язык : Ukrainian

Аудио #3
Идентификатор : 4
Формат : DTS
Формат/Информация : Digital Theater Systems
Профиль формата : MA / Core
Идентификатор кодека : A_DTS
Продолжительность : 2 ч. 10 м.
Вид битрейта : Переменный
Битрейт : 2404 Кбит/сек / 1510 Кбит/сек
Каналы : 6 каналов
Расположение каналов : Front: L C R, Side: L R, LFE
Частота : 48,0 КГц
Битовая глубина : 24 бит
Метод сжатия : Без потерь / Lossy
Язык : English

Текст #1
Идентификатор : 5
Формат : UTF-8
Идентификатор кодека : S_TEXT/UTF8
Идентификатор кодека/Информация : UTF-8 Plain Text
Язык : Russian

Текст #2
Идентификатор : 6
Формат : UTF-8
Идентификатор кодека : S_TEXT/UTF8
Идентификатор кодека/Информация : UTF-8 Plain Text
Язык : English

Меню
00:00:00.000 : :00:00:00.000
00:02:58.219 : :00:02:58.219
00:06:21.172 : :00:06:21.172
00:10:21.871 : :00:10:21.871
00:14:27.992 : :00:14:27.992
00:20:05.621 : :00:20:05.621
00:22:47.783 : :00:22:47.783
00:25:38.620 : :00:25:38.620
00:30:46.803 : :00:30:46.803
00:34:33.654 : :00:34:33.654
00:40:32.263 : :00:40:32.263
00:45:52.249 : :00:45:52.249
00:50:15.470 : :00:50:15.470
00:54:41.027 : :00:54:41.027
00:59:01.245 : :00:59:01.245
01:03:42.067 : :01:03:42.067
01:07:06.063 : :01:07:06.063
01:11:24.488 : :01:11:24.488
01:14:38.932 : :01:14:38.932
01:23:40.848 : :01:23:40.848
01:29:17.727 : :01:29:17.727
01:31:25.020 : :01:31:25.020
01:36:37.666 : :01:36:37.666
01:41:09.104 : :01:41:09.104
01:46:42.312 : :01:46:42.312
01:50:18.361 : :01:50:18.361
01:54:16.682 : :01:54:16.682
01:58:12.876 : :01:58:12.876
02:10:26.609 : :02:10:26.609
Свернуть
"Скриншоты"

Изображение
Изображение
Изображение
Свернуть
Не в сети
Профиль  
 Добавлено: 2011-12-06 14:52 (спустя 25 дней)
Стаж: 7 лет 8 месяцев
Сообщений: 7
Дайте скорости :'(
Не в сети
Профиль  
 Добавлено: 2012-01-10 21:12 (спустя 1 месяц 4 дня)
Стаж: 7 лет 1 месяц
Сообщений: 23
Спасибо!
Не в сети
Профиль  
 Добавлено: 2016-01-28 18:57 (спустя 4 года)
Top-seeder
Аватара пользователя
Стаж: 7 лет 4 месяца
Сообщений: 205
Лайков: 11
Раздайте пожалуйста.
Не в сети
Профиль  
 Добавлено: 2016-01-28 18:57 (спустя 0 секунд)
Top-seeder
Аватара пользователя
Стаж: 7 лет 4 месяца
Сообщений: 205
Лайков: 11
Раздайте пожалуйста.
Не в сети
Профиль  
Начать новую темуОтветить на тему  [ Сообщений: 5 ] 
Вы не можете начинать темы
Вы не можете отвечать на сообщения
Вы не можете редактировать свои сообщения
Вы не можете удалять свои сообщения