Правила форума

  • В этом разделе создание новых тем Запрещено.
  • Для создания новых тем пользуйтесь Корневым разделом DVD и HD фильмы.
Начать новую темуОтветить на тему  [ Сообщений: 3 ] 
Торрент файл
Размер: 7.72 GB • Зарегистрирован: 4 года • Статус: Проверено
Скачан: 111 раз • Желающих скачать: 0 • Поблагодарили: 37 раз
 Раздают: 0  |  0 KB/s  ]   Качают: 0  |  0 KB/s  ] 
 Полного источника не было 4 часа 
Сообщения
 Добавлено: 2012-11-18 19:59
Аватара пользователя
Стаж: 9 лет
Сообщений: 3711
Спасибок: 8856
Лайков: 3
Гарри Поттер и философский камень (Максимальная редакция) / Harry Potter and the Sorcerer's Stone (Ultimate Edition)

Изображение

Год выпуска: 2001
Страна: США, Великобритания
Жанр: фэнтези, приключения, семейный
Продолжительность: 02:38:50
Перевод: Профессиональный (полное дублирование) + субтитры на непереведённые места
Режиссёр: Крис Коламбус / Chris Columbus
В ролях: Дэниэл Рэдклифф, Руперт Гринт, Эмма Уотсон, Мэтт Льюис, Ричард Харрис, Алан Рикман, Иэн Харт, Робби Колтрэйн, Мэгги Смит, Джон Херт, Ричард Гриффитс, Фиона Шоу, Зои Уэнмэйкер, Джон Клиз, Дэвид Брэдли, Джули Уолтерс, Ричард Бреммер, Том Фелтон, Джошуа Хердман, Джейми Уэйлетт, Шон Биггерстафф, Девон Мюррей, Крис Рэнкин, Джеймс Фелпс, Оливер Фелпс
Описание: Фильм «Гарри Поттер и философский камень» (Harry Potter and the Sorcerer's Stone) – первая лента в легендарной киноэпопее по романам британской писательницы Джоан Роулинг. В основу ее сюжета легла одноименная книга.

Худенького мальчика в очках, оставшегося сиротой, тиранят собственные родственники. В ближайшие несколько лет его вряд ли ждет много светлых моментов… Но однажды Гарри получает приглашение поучиться волшебству в знаменитой школе магии «Хогвартс». Вопреки противодействию злого семейства - тети, дяди и дюже вредного кузена, мальчик принимает его. Там все же будет лучше, чем здесь в чулане... Так происходит самое замечательное и самое волшебное превращение фильма «Гарри Поттер и философский камень»: никому не нужный мальчишка из мира "маглов" вдруг становится знаменитостью в мире волшебников и магов. И это только начало захватывающей череды приключения мальчика-легенды по имени Гарри Поттер!
Изображение

Бюджет: $125 000 000
Сборы в США: $317 575 550
Сборы в мире: + $658 900 000 = $976 475 550
Тип релиза: BDRip 720p
Контейнер: MKV
Видео: MPEG4 Video (H264) 1280x532 23.98fps 4999 kbps
Аудио: Russian: 48 kHz, AC3, 3/2 (L,C,R,l,r) + LFE ch, ~448.00 kbps avg |Дублированный|
Аудио 2: English: 48 kHz, DTS, 3/2 (L,C,R,l,r) + LFE ch, ~1510.00.00 kbps avg |Оригинальный|
Субтитры:Английские, Русские (полные + на непереведенные места)
"MediaInfo"
General
Unique ID                      : 216973490028542543704853414705083027857 (0xA33B92FC0BCA103F81BE778B5CF19191)
Complete name                  : F:\_HighDefinition\Harry.Potter.Collection.720p.DVD9\Harry.Potter_Ultimate.Edition\1.Harry.Potter.and.the.Sorcerer's.Stone.2001.Extended.Cut.BluRay.720p.x264.mkv
Format                         : Matroska
Format version                 : Version 2
File size                      : 7.72 GiB
Duration                       : 2h 38mn
Overall bit rate               : 6 957 Kbps
Encoded date                   : UTC 2012-02-16 16:23:28
Writing application            : mkvmerge v5.0.1 ('Es ist Sommer') built on Oct  9 2011 11:55:43
Writing library                : libebml v1.2.2 + libmatroska v1.3.0

Video
ID                             : 1
Format                         : AVC
Format/Info                    : Advanced Video Codec
Format profile                 : High@L4.1
Format settings, CABAC         : Yes
Format settings, ReFrames      : 12 frames
Codec ID                       : V_MPEG4/ISO/AVC
Duration                       : 2h 38mn
Bit rate                       : 4 999 Kbps
Width                          : 1 280 pixels
Height                         : 532 pixels
Display aspect ratio           : 2.40:1
Frame rate mode                : Constant
Frame rate                     : 23.976 fps
Color space                    : YUV
Chroma subsampling             : 4:2:0
Bit depth                      : 8 bits
Scan type                      : Progressive
Bits/(Pixel*Frame)             : 0.306
Stream size                    : 5.39 GiB (70%)
Writing library                : x264 core 107 r1772 c9dad9e
Encoding settings              : cabac=1 / ref=12 / deblock=1:-3:-3 / analyse=0x3:0x113 / me=umh / subme=9 / psy=1 / psy_rd=1.10:0.15 / mixed_ref=1 / me_range=32 / chroma_me=1 / trellis=2 / 8x8dct=1 / cqm=0 / deadzone=21,11 / fast_pskip=0 / chroma_qp_offset=-2 / threads=6 / sliced_threads=0 / nr=0 / decimate=1 / interlaced=0 / constrained_intra=0 / bframes=5 / b_pyramid=2 / b_adapt=2 / b_bias=0 / direct=3 / weightb=1 / open_gop=0 / weightp=2 / keyint=250 / keyint_min=23 / scenecut=40 / intra_refresh=0 / rc_lookahead=60 / rc=2pass / mbtree=1 / bitrate=4999 / ratetol=1.0 / qcomp=0.60 / qpmin=10 / qpmax=51 / qpstep=4 / cplxblur=20.0 / qblur=0.5 / vbv_maxrate=40000 / vbv_bufsize=30000 / ip_ratio=1.40 / aq=1:0.80 / nal_hrd=none
Language                       : English
Default                        : Yes
Forced                         : Yes

Audio #1
ID                             : 2
Format                         : AC-3
Format/Info                    : Audio Coding 3
Mode extension                 : CM (complete main)
Format settings, Endianness    : Big
Codec ID                       : A_AC3
Duration                       : 2h 38mn
Bit rate mode                  : Constant
Bit rate                       : 448 Kbps
Channel(s)                     : 6 channels
Channel positions              : Front: L C R, Side: L R, LFE
Sampling rate                  : 48.0 KHz
Bit depth                      : 16 bits
Compression mode               : Lossy
Stream size                    : 509 MiB (6%)
Title                          : Дубляж
Language                       : Russian
Default                        : Yes
Forced                         : No

Audio #2
ID                             : 3
Format                         : DTS
Format/Info                    : Digital Theater Systems
Codec ID                       : A_DTS
Duration                       : 2h 38mn
Bit rate mode                  : Constant
Bit rate                       : 1 510 Kbps
Channel(s)                     : 6 channels
Channel positions              : Front: L C R, Side: L R, LFE
Sampling rate                  : 48.0 KHz
Bit depth                      : 24 bits
Compression mode               : Lossy
Stream size                    : 1.68 GiB (22%)
Title                          : English DTS-HDMA core 5.1 1509Kbps
Language                       : English
Default                        : No
Forced                         : Yes

Text #1
ID                             : 4
Format                         : UTF-8
Codec ID                       : S_TEXT/UTF8
Codec ID/Info                  : UTF-8 Plain Text
Title                          : Полные
Language                       : Russian
Default                        : Yes
Forced                         : No

Text #2
ID                             : 5
Format                         : UTF-8
Codec ID                       : S_TEXT/UTF8
Codec ID/Info                  : UTF-8 Plain Text
Title                          : На непереведенные места
Language                       : Russian
Default                        : No
Forced                         : No

Text #3
ID                             : 6
Format                         : UTF-8
Codec ID                       : S_TEXT/UTF8
Codec ID/Info                  : UTF-8 Plain Text
Language                       : English
Default                        : No
Forced                         : No
Свернуть
Скриншоты
Изображение
Изображение
Изображение
Изображение
Изображение
Изображение
Изображение
Свернуть

Не в сети
Профиль  
 Добавлено: 2013-07-18 18:01 (спустя 7 месяцев)
Стаж: 8 лет 10 месяцев
Сообщений: 13
Спасибок: 51
BIOlan, раздай пожалуйста! Третий день тяну не вытяну -))
Не в сети
Профиль  
 Добавлено: 2016-11-22 11:21 (спустя 3 года 4 месяца)
Стаж: 4 года 9 месяцев
Сообщений: 2
Раздайте кто-нибудь, немного осталось, пол недели докачать не могу :/
Не в сети
Профиль  
Начать новую темуОтветить на тему  [ Сообщений: 3 ] 
Вы не можете начинать темы
Вы не можете отвечать на сообщения
Вы не можете редактировать свои сообщения
Вы не можете удалять свои сообщения