Правила форума

  • В этом разделе создание новых тем Запрещено.
  • Для создания новых тем пользуйтесь Корневым разделом DVD и HD фильмы.
Начать новую темуОтветить на тему  [ Сообщений: 4 ] 
Торрент файл
Размер: 6.83 GB • Зарегистрирован: 4 года • Статус: Проверено
Скачан: 91 раз • Желающих скачать: 0 • Поблагодарили: 33 раза
 Раздают: 0  |  0 KB/s  ]   Качают: 0  |  0 KB/s  ] 
 Полного источника не было 12 часов 
Сообщения
 Добавлено: 2012-11-18 20:25
Аватара пользователя
Стаж: 9 лет
Сообщений: 3711
Спасибок: 8856
Лайков: 3
Гарри Поттер и тайная комната (Максимальная редакция) / Harry Potter and the Chamber of Secrets (Ultimate Edition)

Изображение

Год выпуска: 2002
Страна: США, Великобритания
Жанр: фэнтези, приключения, семейный
Продолжительность: 02:54:23
Перевод: Профессиональный (полное дублирование) + субтитры на непереведённые места
Режиссёр: Крис Коламбус / Chris Columbus
В ролях: Дэниэл Рэдклифф, Руперт Гринт, Эмма Уотсон, Ричард Гриффитс, Фиона Шоу, Гарри Меллинг, Тоби Джонс, Джим Нортон, Вероника Клиффорд, Джеймс Фелпс
Описание: Фантастические приключения "Гарри Поттер и Тайная Комната" (Harry Potter and the Chamber of Secrets) - отличный фильм для семейного просмотра! Кинокартина является второй частью о приключениях Гарри Поттера и его друзей. Фильм снят по одноименному роману "Гарри Поттер и тайная комната", написанному Джоаной Роулинг, и награжден кинопремией "MTV Movie Awards" за лучшего виртуального персонажа 2003 года - "Добби". По мотивам кинофильма сделана увлекательная игра "Гарри Поттер и Тайная Комната".

В кинокартине "Гарри Поттер и Тайная Комната" Гарри Поттер и его друзья Гермиона и Рон переходят на второй год обучения школы Хогвартс, но до начала обучения эльф Добби предупреждает Гарри об опасности, поджидающей его в школьных стенах. Тот не слушается совета эльфа и смело едет в Хогвартс. Спустя месяц обучения, в школе происходят странные вещи и вскоре Гарри узнает, что где-то в замке есть тайная комната...
Изображение
Бюджет: $100 000 000
Сборы в США: $261 988 482
Сборы в мире: + $616 991 152 = $878 979 634
Тип релиза: BDRip 720p Сэмпл
Контейнер: MKV
Видео: MPEG4 Video (H264) 1280x534 23.98fps 4515 kbps
Аудио: Russian: 48 kHz, DTS, 3/2 (L,C,R,l,r) + LFE ch, ~640.00 kbps avg |Дублированный|
Аудио 2: English: 48 kHz, DTS, 3/2 (L,C,R,l,r) + LFE ch, ~1536.00.00 kbps avg |Оригинальный|
"MediaInfo"
General
Unique ID                      : 179015291872096277770655949076567849306 (0x86AD17531D2FA2A98E199D4C717A795A)
Complete name                  : F:\_HighDefinition\Harry.Potter.Collection.720p.DVD9\Harry.Potter_Ultimate.Edition\2.Harry.Potter.and.the.Chamber.of.Secrets.2002.Extended.Cut.720p.BluRay.X264.mkv
Format                         : Matroska
Format version                 : Version 2
File size                      : 6.83 GiB
Duration                       : 2h 54mn
Overall bit rate               : 5 605 Kbps
Encoded date                   : UTC 2012-02-12 17:33:25
Writing application            : mkvmerge v5.0.1 ('Es ist Sommer') built on Oct  9 2011 11:55:43
Writing library                : libebml v1.2.2 + libmatroska v1.3.0

Video
ID                             : 1
Format                         : AVC
Format/Info                    : Advanced Video Codec
Format profile                 : High@L4.1
Format settings, CABAC         : Yes
Format settings, ReFrames      : 8 frames
Codec ID                       : V_MPEG4/ISO/AVC
Duration                       : 2h 54mn
Bit rate                       : 4 515 Kbps
Width                          : 1 280 pixels
Height                         : 534 pixels
Display aspect ratio           : 2.40:1
Frame rate mode                : Constant
Frame rate                     : 23.976 fps
Color space                    : YUV
Chroma subsampling             : 4:2:0
Bit depth                      : 8 bits
Scan type                      : Progressive
Bits/(Pixel*Frame)             : 0.276
Stream size                    : 5.37 GiB (79%)
Writing library                : x264 core 84 r1416kGIT fcf70c2
Encoding settings              : cabac=1 / ref=8 / deblock=1:-2:-2 / analyse=0x3:0x133 / me=umh / subme=9 / psy=1 / psy_rd=1.0:0.2 / mixed_ref=0 / me_range=16 / chroma_me=1 / trellis=1 / 8x8dct=1 / cqm=0 / deadzone=21,11 / fast_pskip=0 / chroma_qp_offset=-3 / threads=12 / sliced_threads=0 / nr=0 / decimate=0 / mbaff=0 / constrained_intra=0 / bframes=3 / b_pyramid=0 / b_adapt=2 / b_bias=0 / direct=1 / wpredb=1 / wpredp=2 / keyint=250 / keyint_min=25 / scenecut=40 / intra_refresh=0 / rc_lookahead=50 / rc=2pass / mbtree=1 / bitrate=4515 / ratetol=1.0 / qcomp=0.60 / qpmin=10 / qpmax=51 / qpstep=4 / cplxblur=20.0 / qblur=0.5 / vbv_maxrate=50000 / vbv_bufsize=50000 / ip_ratio=1.40 / aq=1:1.00
Default                        : Yes
Forced                         : No

Audio #1
ID                             : 2
Format                         : AC-3
Format/Info                    : Audio Coding 3
Mode extension                 : CM (complete main)
Format settings, Endianness    : Big
Codec ID                       : A_AC3
Duration                       : 2h 54mn
Bit rate mode                  : Constant
Bit rate                       : 448 Kbps
Channel(s)                     : 6 channels
Channel positions              : Front: L C R, Side: L R, LFE
Sampling rate                  : 48.0 KHz
Bit depth                      : 16 bits
Compression mode               : Lossy
Stream size                    : 559 MiB (8%)
Language                       : English
Default                        : No
Forced                         : No

Audio #2
ID                             : 4
Format                         : AC-3
Format/Info                    : Audio Coding 3
Mode extension                 : CM (complete main)
Format settings, Endianness    : Big
Codec ID                       : A_AC3
Duration                       : 2h 54mn
Bit rate mode                  : Constant
Bit rate                       : 640 Kbps
Channel(s)                     : 6 channels
Channel positions              : Front: L C R, Side: L R, LFE
Sampling rate                  : 48.0 KHz
Bit depth                      : 16 bits
Compression mode               : Lossy
Stream size                    : 798 MiB (11%)
Language                       : Russian
Default                        : Yes
Forced                         : No

Text #1
ID                             : 3
Format                         : UTF-8
Codec ID                       : S_TEXT/UTF8
Codec ID/Info                  : UTF-8 Plain Text
Language                       : English
Default                        : No
Forced                         : No

Text #2
ID                             : 5
Format                         : UTF-8
Codec ID                       : S_TEXT/UTF8
Codec ID/Info                  : UTF-8 Plain Text
Language                       : Russian
Default                        : No
Forced                         : No
Свернуть
Субтитры
Изображение
Изображение
Изображение
Изображение
Изображение
Изображение
Изображение
Свернуть
 Tomasino нравится это.
Не в сети
Профиль  
 Добавлено: 2012-11-18 23:42 (спустя 3 часа)
Аватара пользователя
Стаж: 6 лет 5 месяцев
Сообщений: 19948
Спасибок: 721
Лайков: 461
Тут типа всё-всё есть?? :du_ma_et:
_________________
It was I'am ... :jn_pu_sk:
Медали и Ордена
ИзображениеИзображение
Свернуть
В сети
Профиль  
 Добавлено: 2012-11-19 14:02 (спустя 14 часов)
Аватара пользователя
Стаж: 9 лет
Сообщений: 3711
Спасибок: 8856
Лайков: 3
*ЖОРА*, да. Что-то вроде Director's cut edition.
_________________
Изображение
Не в сети
Профиль  
 Добавлено: 2016-01-23 14:17 (спустя 3 года 2 месяца)
Стаж: 7 лет 7 месяцев
Сообщений: 196
Спасибок: 1
Лайков: 8
А нормальные русские субтитры так сложно было сделать? Почему тут перевод только на доп. сцены? Хотел посмотреть на оригинале с субтитрами, так субтитров можно сказать и вовсе нет.
Не в сети
Профиль  
Начать новую темуОтветить на тему  [ Сообщений: 4 ] 
Вы не можете начинать темы
Вы не можете отвечать на сообщения
Вы не можете редактировать свои сообщения
Вы не можете удалять свои сообщения