Правила форума

  • В этом разделе создание новых тем Запрещено.
  • Для создания новых тем пользуйтесь Корневым разделом DVD и HD фильмы.
Начать новую темуОтветить на тему  [ 1 сообщение ] 
Торрент файл
Размер: 8.94 GB • Зарегистрирован: 3 года 10 месяцев • Статус: T Временный релиз
Скачан: 42 раза • Желающих скачать: 0 • Поблагодарили: 12 раз
 Раздают: 1  |  0 KB/s  ]   Качают: 0  |  0 KB/s  ] 
Сообщения
 Добавлено: 2013-01-13 14:16
Модератор
Аватара пользователя
Стаж: 6 лет 10 месяцев
Возраст: 33
Сообщений: 5908
Спасибок: 61259
Лайков: 3540
Изображение

Газетчик
The Paperboy


Год выпуска: 2012
Страна: США
Жанр: триллер
Продолжительность: 01:46:45
Перевод: Любительский (одноголосый)
Режиссер: Ли Дэниелс
Сценарий: Питер Декстер, Ли Дэниелс
Продюсер: Эд Кэйтелл III, Ли Дэниелс, Кассиан Элвис, Хилари Шор, Майкл Бенаройя
Оператор: Роберто Шэфер
Композитор: Марио Григоров
В ролях: Мэттью МакКонахи, Александр Гаврилин, Зак Эфрон, Николь Кидман, Джон Кьюсак, Мейси Грэй, Елена Шульман, Дэвид Ойелоуо, Александр Дасевич, Скотт Гленн, Владимир Рыбальченко, Нед Беллами
Бюджет: $12 500 000
Сборы в США: $693 286
Сборы в России: $147 871
Мировая премьера: 24 мая 2012
Описание: Конец 1960-х; успешный журналист Уорд расследует дерзкое убийство влиятельного шерифа-расиста в маленьком южном городке. Его цель - освободить несправедливо осуждённого и заодно сделать вместе с коллегой из Лондона сенсационный материал. Журналистам помогает юный разносчик газет Джек - родной брат Уорда, и невероятно сексапильная блондинка Шарлотта: она влюбилась по переписке в того самого заключенного из камеры смертников. Каждому из героев есть что скрывать и чего бояться - но раскалённый воздух Юга пробуждает самые тёмные и горячие желания.

Изображение User Rating: 6.477 (515)
Изображение User Rating: 6.00 (2 880)
MPAA: R - Лицам до 17 лет обязательно присутствие взрослого
Раздача группы: Изображение
Качество: BDRip (1080p)
Формат: AVI
Видео: MPEG-4 AVC, 11.0 Мбит/с, 1920x800, 23.976 Кадр/с
Аудио: 48 kHz, Русский (АС3, 6 ch, 320 Кбит/с), английский (АС3, 6 ch, 640 Кбит/с)
mediainfo
Format : Matroska
File size : 8.94 GiB
Duration : 1h 46mn
Overall bit rate : 12.0 Mbps
Movie name : Release for TMD by AlderShot
Encoded date : UTC 2013-01-13 09:35:49
Writing application : mkvmerge v4.9.1 ('Ich will') built on Jul 11 2011 23:53:15
Writing library : libebml v1.2.1 + libmatroska v1.1.1

Video
ID : 1
Format : AVC
Format/Info : Advanced Video Codec
Format profile : High@L4.1
Format settings, CABAC : Yes
Format settings, ReFrames : 5 frames
Format settings, GOP : M=7, N=48
Codec ID : V_MPEG4/ISO/AVC
Duration : 1h 46mn
Bit rate : 11.0 Mbps
Width : 1 920 pixels
Height : 800 pixels
Display aspect ratio : 2.40:1
Frame rate : 23.976 fps
Color space : YUV
Chroma subsampling : 4:2:0
Bit depth : 8 bits
Scan type : Progressive
Bits/(Pixel*Frame) : 0.300
Stream size : 8.05 GiB (90%)
Title : The.Paperboy.2012
Writing library : x264 core 125 r2208 d9d2288
Encoding settings : cabac=1 / ref=5 / deblock=1:-3:-3 / analyse=0x3:0x113 / me=umh / subme=10 / psy=1 / psy_rd=1.05:0.10 / mixed_ref=1 / me_range=32 / chroma_me=1 / trellis=2 / 8x8dct=1 / cqm=0 / deadzone=21,11 / fast_pskip=0 / chroma_qp_offset=-2 / threads=8 / lookahead_threads=1 / sliced_threads=0 / nr=0 / decimate=1 / interlaced=0 / bluray_compat=0 / constrained_intra=0 / bframes=6 / b_pyramid=2 / b_adapt=2 / b_bias=0 / direct=3 / weightb=1 / open_gop=0 / weightp=2 / keyint=250 / keyint_min=23 / scenecut=40 / intra_refresh=0 / rc=2pass / mbtree=0 / bitrate=11035 / ratetol=1.0 / qcomp=0.70 / qpmin=0 / qpmax=69 / qpstep=4 / cplxblur=20.0 / qblur=0.5 / ip_ratio=1.40 / pb_ratio=1.30 / aq=2:0.80
Language : English

Audio #1
ID : 2
Format : AC-3
Format/Info : Audio Coding 3
Mode extension : CM (complete main)
Codec ID : A_AC3
Duration : 1h 46mn
Bit rate mode : Constant
Bit rate : 320 Kbps
Channel(s) : 6 channels
Channel positions : Front: L C R, Side: L R, LFE
Sampling rate : 48.0 KHz
Bit depth : 16 bits
Compression mode : Lossy
Stream size : 244 MiB (3%)
Language : Russian

Audio #2
ID : 3
Format : AC-3
Format/Info : Audio Coding 3
Mode extension : CM (complete main)
Codec ID : A_AC3
Duration : 1h 46mn
Bit rate mode : Constant
Bit rate : 640 Kbps
Channel(s) : 6 channels
Channel positions : Front: L C R, Side: L R, LFE
Sampling rate : 48.0 KHz
Bit depth : 16 bits
Compression mode : Lossy
Stream size : 489 MiB (5%)
Title : DD5.1 640K
Language : English

Text
ID : 4
Format : UTF-8
Codec ID : S_TEXT/UTF8
Codec ID/Info : UTF-8 Plain Text
Title : Romanian
Language : Romanian
Свернуть
"Знаете ли Вы, что..."
  • Тоби Магуайр был приглашен на роль Уорда, но отказался из-за несогласованности расписаний съемок.
Свернуть
Скриншоты

Изображение
Изображение
Изображение
Изображение
Изображение
Изображение
Свернуть
_________________
ИзображениеИзображение Изображение
Изображение
 tany1984 и di-ys1 нравится это.
Не в сети
Профиль  
Начать новую темуОтветить на тему  [ 1 сообщение ] 
Вы не можете начинать темы
Вы не можете отвечать на сообщения
Вы не можете редактировать свои сообщения
Вы не можете удалять свои сообщения