Правила форума

  • В этом разделе создание новых тем Запрещено.
  • Для создания новых тем пользуйтесь Корневым разделом DVD и HD фильмы.
Начать новую темуОтветить на тему  [ Сообщений: 2 ] 
Торрент файл
Размер: 8.97 GB • Зарегистрирован: 5 лет 10 месяцев • Статус: Проверено
Скачан: 27 раз • Желающих скачать: 0 • Поблагодарили: 5 раз
 Раздают: 0  |  0 KB/s  ]   Качают: 0  |  0 KB/s  ] 
 Полного источника не было 3 года 2 месяца 
Сообщения
 Добавлено: 2011-01-29 08:52
Аватара пользователя
Стаж: 6 лет
Возраст: 26
Сообщений: 113
Спасибок: 691
Где-то / Somewhere

Изображение


Год выпуска: 2010
Страна: США, American Zoetrope
Жанр: Драма
Продолжительность: 01:38:27
Перевод: Дублированный [Лицензия]
Режиссёр: София Коппола
Сценарист: София Коппола
Продюсер: Дж. Мак Браун, Френсис Форд Коппола, Роман Коппола
Оператор: Харрис Савидес
Композитор: Phoenix
В ролях: Стивен Дорфф, Эль Фаннинг, Мишель Монахэн, Крис Понтиус, Эрин Уоссон, Александра Уильямс, Натали Фэй, Кристина Шеннон, Карисса Шеннон, Джон Прадхонт
Описание: Утопая в оргиях и пьянках, дорогих машинах и поклонницах, прожженная голливудская звезда Джонни Марко ведет распутную жизнь. Забившись в кокон греха и порока, он теряет себя: Однажды в роскошном отеле Шато Мормон его разыскивает его 11-летняя дочь, которую он бросил много лет назад. Джонни привязывается к девочке, а та возвращает его к жизни. Но расставание неизбежно...
Изображение 6.6/10 (882 votes)
Изображение 6.5/10 (5,666 votes)
Релиз Группы: Изображение

Раздача Группы: Изображение

Доп.Информация
Бюджет: $8 000 000
Сборы в мире: $7 864 589
Сборы в США: $1 366 396
Сборы в России: $425 046
Мировая премьера: 3 сентября 2010
Релиз на DVD: 3 февраля 2011, <Парадиз-ВC>
Релиз на Blu-ray: 3 февраля 2011, <Парадиз-ВC>
Свернуть
MPAA: Изображение
Качество: BDRip, 1080p
Формат: MKV
Видео: 11.2 mb/s, 1888x1040
Аудио #1: Russian: AC3, 384 kb/s (6 ch)
Аудио #2: English: DTS, 1510 kb/s (6 ch)
Субтитры: Russian

Изображение

Mediainfo
Общее
Уникальный идентификатор : 176143163603518099763941619782459192075 (0x8483F077D1FA4575BFD3753403E1F30B)
Полное имя : E:\Загрузки с Utorrent\Somewhere.2010.BluRay.1080p.mkv
Формат : Matroska
Размер файла : 8,97 Гбайт
Продолжительность : 1 ч. 38 м.
Общий поток : 13,0 Мбит/сек
Дата кодирования : UTC 2011-01-28 14:15:42
Программа кодирования : mkvmerge v3.0.0 ('Hang up your Hang-Ups') built on Dec 12 2009 15:20:35
Библиотека кодирования : libebml v0.7.9 + libmatroska v0.8.1

Видео
Идентификатор : 1
Формат : AVC
Формат/Информация : Advanced Video Codec
Профиль формата : High@L4.1
Параметр CABAC формата : Да
Параметр ReFrames формата : 4 кадры
Идентификатор кодека : V_MPEG4/ISO/AVC
Продолжительность : 1 ч. 38 м.
Битрейт : 11,2 Мбит/сек
Ширина : 1888 пикс.
Высота : 1040 пикс.
Соотношение сторон : 16:9
Частота кадров : 23,976 кадр/сек
Цветовое пространство : YUV
Подвыборка цветности : 4:2:0
Битовая глубина : 8 бит
Тип развёртки : Прогрессивная
Бит/(Пиксели*Кадры) : 0.237
Размер потока : 7,49 Гбайт (83%)
Заголовок : Somewhere.2010
Библиотека кодирования : x264 core 107 r1766 f9f0035
Настройки программы : cabac=1 / ref=4 / deblock=1:-3:-3 / analyse=0x3:0x113 / me=umh / subme=9 / psy=1 / psy_rd=1.00:0.00 / mixed_ref=1 / me_range=32 / chroma_me=1 / trellis=2 / 8x8dct=1 / cqm=2 / deadzone=21,11 / fast_pskip=0 / chroma_qp_offset=-1 / threads=12 / sliced_threads=0 / nr=0 / decimate=1 / interlaced=0 / constrained_intra=0 / bframes=6 / b_pyramid=2 / b_adapt=2 / b_bias=0 / direct=3 / weightb=1 / open_gop=0 / weightp=2 / keyint=250 / keyint_min=23 / scenecut=40 / intra_refresh=0 / rc_lookahead=40 / rc=2pass / mbtree=0 / bitrate=11153 / ratetol=1.0 / qcomp=0.70 / qpmin=10 / qpmax=51 / qpstep=4 / cplxblur=20.0 / qblur=0.5 / vbv_maxrate=45000 / vbv_bufsize=40000 / ip_ratio=1.40 / pb_ratio=1.30 / aq=1:0.90 / nal_hrd=none
Язык : English

Аудио #1
Идентификатор : 2
Формат : AC-3
Формат/Информация : Audio Coding 3
Расширение режима : CM (complete main)
Идентификатор кодека : A_AC3
Продолжительность : 1 ч. 38 м.
Вид битрейта : Постоянный
Битрейт : 384 Кбит/сек
Канал(ы) : 6 канала(ов)
Расположение каналов : Front: L C R, Side: L R, LFE
Частота : 48,0 КГц
Битовая глубина : 16 бит
Метод сжатия : С потерями
Размер потока : 270 Мбайт (3%)

Аудио #2
Идентификатор : 3
Формат : DTS
Формат/Информация : Digital Theater Systems
Идентификатор кодека : A_DTS
Продолжительность : 1 ч. 38 м.
Вид битрейта : Постоянный
Битрейт : 1510 Кбит/сек
Канал(ы) : 6 канала(ов)
Расположение каналов : Front: L C R, Side: L R, LFE
Частота : 48,0 КГц
Битовая глубина : 24 бит
Метод сжатия : С потерями
Размер потока : 1,04 Гбайт (12%)
Заголовок : DTS-CORE 1536K
Язык : English

Текст
Идентификатор : 4
Формат : UTF-8
Идентификатор кодека : S_TEXT/UTF8
Идентификатор кодека/Информация : UTF-8 Plain Text
Свернуть

Скриншоты
Изображение

Изображение

Изображение

Изображение
Свернуть
Не в сети
Профиль  
 Добавлено: 2011-01-30 01:40 (спустя 16 часов)
Аватара пользователя
Стаж: 9 лет 1 месяц
Возраст: 29
Сообщений: 6486
Спасибок: 8101
Лайков: 6
Поправил оформление.
_________________
R.I.P. Anatoly_v01@(super)moderator@nntt.org [04.07.08 - 11.04.11]
Изображение
Не в сети
Профиль  
Начать новую темуОтветить на тему  [ Сообщений: 2 ] 
Вы не можете начинать темы
Вы не можете отвечать на сообщения
Вы не можете редактировать свои сообщения
Вы не можете удалять свои сообщения