Правила форума

  • В этом разделе создание новых тем Запрещено.
  • Для создания новых тем пользуйтесь Корневым разделом DVD и HD фильмы.
Начать новую темуОтветить на тему  [ Сообщений: 2 ] 
Торрент файл
Размер: 4.66 GB • Зарегистрирован: 4 года 1 месяц • Статус: Проверено
Скачан: 21 раз • Желающих скачать: 0 • Поблагодарили: 5 раз
 Раздают: 0  |  0 KB/s  ]   Качают: 0  |  0 KB/s  ] 
 Полного источника не было 3 года 2 месяца 
Сообщения
 Добавлено: 2012-10-19 23:41
Модератор
Аватара пользователя
Стаж: 8 лет 7 месяцев
Сообщений: 4965
Спасибок: 110254
Лайков: 18
Изображение

Гениальный папа / Father of Invention


Год выпуска: 2010
Страна: США
Слоган: «Sometimes the best ideas are homegrown»

Жанр: драма, комедия
Продолжительность: 01:33:13
Перевод: Профессиональный (полное дублирование)
Субтитры: English
Режиссер: Трент Купер
Сценарий: Джонатан Д. Крэйн, Трент Купер
Продюсер: Кен Барбет, Киа Джэм, Джонатан Д. Крэйн, Джейсон Шавиччо, Кевин Спейси
Оператор: Стив Йедлин
Композитор: Ник Урата

В ролях: Кевин Спейси, Камилла Белль, Джонни Ноксвил, Хэзер Грэм, Анна Анисимова, Джон Стамос, Ред Уэст, Майкл Розенбаум, Дэнни Комден, Джек МакГи, Крэйг Робинсон, Вирджиния Мэдсен
Дублёры: Владимир Антоник, Любовь Германова, Денис Беспалый, Иван Жарков, Александр Новиков
Сборы в России: $97 778

Мировая премьера: 15 февраля 2010
Релиз на DVD: 18 октября 2012, «Мистерия Звука»
Описание: Роберт Аксель, эксцентричный изобретатель, считает себя настоящим гуру. Но он теряет все в один миг, когда одно из его изобретений калечит тысячи покупателей. Его ждали тюрьма и 8 лет затворничества, после Аксель готов восстановить свое имя и свою многомиллионную империю. Но пока что ему нужно уговорить свою 22-летнюю дочь пустить его к себе в дом, чтобы где-то жить.
Изображение 5.7/10 (4334 users) Изображение 5.943 (1 520)
MPAA: Изображение - Детям до 13 лет просмотр не желателен
Релиз группы Изображение
Раздача группы: Изображение

"NFO"
Format : Matroska
File size : 4.66 GiB
Duration : 1h 33mn
Overall bit rate : 7 155 Kbps
Movie name : "Father.of.Invention.2010.720p.BluRay.DD5.1.x264-DON"
Encoded date : UTC 2012-10-19 19:05:06
Writing application : mkvmerge v3.4.0 ('Rapunzel') сборка от May 15 2010 09:38:20
Writing library : libebml v0.8.0 + libmatroska v0.9.0

Video
ID : 1
Format : AVC
Format/Info : Advanced Video Codec
Format profile : High@L4.1
Format settings, CABAC : Yes
Format settings, ReFrames : 12 frames
Codec ID : V_MPEG4/ISO/AVC
Duration : 1h 33mn
Bit rate : 6 070 Kbps
Width : 1 280 pixels
Height : 534 pixels
Display aspect ratio : 2.40:1
Frame rate : 23.976 fps
Color space : YUV
Chroma subsampling : 4:2:0
Bit depth : 8 bits
Scan type : Progressive
Bits/(Pixel*Frame) : 0.370
Stream size : 3.86 GiB (83%)
Title : Father of Invention 2010 720p BluRay DD5.1 x264-DON
Writing library : x264 core 119 r2106+636 fcb18f7
Encoding settings : cabac=1 / ref=12 / deblock=1:-3:-3 / analyse=0x3:0x133 / me=tesa / subme=10 / psy=1 / fade_compensate=0.00 / psy_rd=0.70:0.00 / mixed_ref=1 / me_range=24 / chroma_me=1 / trellis=2 / 8x8dct=1 / cqm=0 / deadzone=21,11 / fast_pskip=0 / chroma_qp_offset=-2 / threads=6 / sliced_threads=0 / nr=0 / decimate=1 / interlaced=0 / bluray_compat=0 / constrained_intra=0 / fgo=3 / bframes=8 / b_pyramid=2 / b_adapt=2 / b_bias=0 / direct=3 / weightb=1 / open_gop=0 / weightp=2 / keyint=250 / keyint_min=23 / scenecut=40 / intra_refresh=0 / rc_lookahead=150 / rc=2pass / mbtree=1 / bitrate=6070 / ratetol=1.0 / qcomp=0.75 / qpmin=0 / qpmax=69 / qpstep=4 / cplxblur=20.0 / qblur=0.5 / vbv_maxrate=50000 / vbv_bufsize=62500 / nal_hrd=none / ip_ratio=1.40 / aq=1:0.60
Language : English

Audio #1
ID : 2
Format : AC-3
Format/Info : Audio Coding 3
Mode extension : CM (complete main)
Codec ID : A_AC3
Duration : 1h 33mn
Bit rate mode : Constant
Bit rate : 448 Kbps
Channel(s) : 6 channels
Channel positions : Front: L C R, Side: L R, LFE
Sampling rate : 48.0 KHz
Bit depth : 16 bits
Compression mode : Lossy
Stream size : 299 MiB (6%)
Title : AC3 5.1 @ 448 kbps – Дубляж, R5
Language : Russian

Audio #2
ID : 3
Format : AC-3
Format/Info : Audio Coding 3
Mode extension : CM (complete main)
Codec ID : A_AC3
Duration : 1h 33mn
Bit rate mode : Constant
Bit rate : 640 Kbps
Channel(s) : 6 channels
Channel positions : Front: L C R, Side: L R, LFE
Sampling rate : 48.0 KHz
Bit depth : 16 bits
Compression mode : Lossy
Stream size : 427 MiB (9%)
Title : AC3 5.1 @ 640 kbps
Language : English

Text
ID : 4
Format : UTF-8
Codec ID : S_TEXT/UTF8
Codec ID/Info : UTF-8 Plain Text
Language : English

Menu
00:00:00.000 : :00:00:00.000
00:07:35.497 : :00:07:35.497
00:14:27.575 : :00:14:27.575
00:22:18.837 : :00:22:18.837
00:31:37.896 : :00:31:37.896
00:39:50.388 : :00:39:50.388
00:46:23.155 : :00:46:23.155
00:55:11.975 : :00:55:11.975
01:03:02.654 : :01:03:02.654
01:11:17.899 : :01:11:17.899
01:20:47.384 : :01:20:47.384
01:29:41.668 : :01:29:41.668
Свернуть

*Сохранены оригинальные чаптеры как на Blu-Ray
Качество: BDRip 720р
Формат: MKV

Видео: 1280x534 at 23.976 fps, x264@L4.1, 2pass, ~6070 kbps avg
Аудио №1: Russian: 48 kHz, AC3, 3/2 (L,C,R,l,r) + LFE ch, ~448 kbps avg
Аудио №2: English: 48 kHz, AC3, 3/2 (L,C,R,l,r) + LFE ch, ~640 kbps avg
Рип от DON! ;)

"Скриншоты"

Изображение

Изображение

Изображение

Изображение

Свернуть
_________________
Изображение Изображение Изображение
Билайн / АДС добавляйте ретрекер, чтобы качать на скорости 100 Мбит/с
Cкрытый текст
Изображение
Свернуть
Не в сети
Профиль  
 Добавлено: 2013-03-16 17:32 (спустя 4 месяца 27 дней)
Стаж: 7 лет 8 месяцев
Сообщений: 704
Лайков: 36
А где озывы?
Фильм-то как?
Не в сети
Профиль  
Начать новую темуОтветить на тему  [ Сообщений: 2 ] 
Вы не можете начинать темы
Вы не можете отвечать на сообщения
Вы не можете редактировать свои сообщения
Вы не можете удалять свои сообщения