Правила форума

  • В этом разделе создание новых тем Запрещено.
  • Для создания новых тем пользуйтесь Корневым разделом DVD и HD фильмы.
Начать новую темуОтветить на тему  [ Сообщений: 2 ] 
Торрент файл
Размер: 11.02 GB • Зарегистрирован: 1 год 11 месяцев • Статус: Проверено
Скачан: 283 раза • Желающих скачать: 0 • Поблагодарили: 85 раз
 Раздают: 0  |  0 KB/s  ]   Качают: 0  |  0 KB/s  ] 
 Полного источника не было 3 часа 
Сообщения
 Добавлено: 2014-12-04 20:32
Аватара пользователя
Стаж: 9 лет 1 месяц
Сообщений: 7922
Спасибок: 122117
Лайков: 1191
Геракл / Hercules

«Множество врагов. Двенадцать подвигов. Один герой»

Изображение


Год выпуска: 2014
Страна: Изображение США
Жанр: боевик, приключения
Продолжительность: 01:38:05
Субтитры: Русские, английские
Перевод: Профессиональный (полное дублирование) [Лицензия]


Режиссер: Бретт Рэтнер
Сценарий: Райан Кондал, Эван Спилиотопулос, Стив Мур
Продюсер: Бо Флинн, Бэрри Ливайн, Бретт Рэтнер
Оператор: Данте Спинотти
Композитор: Фернандо Веласкес, Johannes Vogel

В ролях: Дуэйн Джонсон, Аксель Хенни, Иэн МакШейн, Джон Хёрт, Руфус Сьюэлл, Ингрид Больсё Бердаль, Рис Ричи, Джозеф Файнс, Тобиас Зантельман, Питер Муллан

Описание: Более тысячи лет назад измученная душа скиталась по Земле, полубог, получеловек — Геракл — могучий сын царя богов Зевса, совершив все 12 подвигов, потерял семью и теперь находит утешение только в кровавых битвах.

За эти годы он собирает вокруг себя шестерых таких же потерянных воинов, единственным смыслом жизни для которых стали сражения и присутствие смертельной опасности. Эти мужчины и женщина никогда не задают вопрос, где, почему или с кем они идут сражаться; только, сколько им заплатят. Зная это, фракийский царь Котис нанимает этих воинов, чтобы они обучили его солдат и сделали из них самую сильную и великую армию всех времен.


Изображение Изображение

Раздача группы: Изображение

Качество: BDRip (1080p)
Формат: Matroska
Видео: MPEG-4 AVC, 13938 Кбит/с, 1920х800
Аудио №1: Русский (AC3, 48,0 КГц, 6 ch, 640 Кбит/c)
Аудио №2: Английский (DTS, 48,0 КГц, 6 ch, 1510 Кбит/c)

MediaInfo
Общее
Уникальный идентификатор : 235462731617884590042444241165218947268 (0xB12478F9C222EEACAAB81D78D6A320C4)
Полное имя : D:\Фильмы\Hercules.2014.BDRip.1080p.mkv
Формат : Matroska
Версия формата : Version 4 / Version 2
Размер файла : 11,0 Гбайт
Продолжительность : 1 ч. 38 м.
Общий поток : 16,1 Мбит/сек
Дата кодирования : UTC 2014-12-04 16:49:03
Программа кодирования : mkvmerge v7.2.0 ('On Every Street') 64bit built on Sep 13 2014 15:52:10
Библиотека кодирования : libebml v1.3.0 + libmatroska v1.4.1
DURATION : 01:38:04.640000000
NUMBER_OF_FRAMES : 551685
NUMBER_OF_BYTES : 1110541905
_STATISTICS_WRITING_APP : mkvmerge v7.2.0 ('On Every Street') 64bit built on Sep 13 2014 15:52:10
_STATISTICS_WRITING_DATE_UTC : 2014-12-04 16:49:03
_STATISTICS_TAGS : BPS DURATION NUMBER_OF_FRAMES NUMBER_OF_BYTES
Attachment : Yes

Видео
Идентификатор : 1
Формат : AVC
Формат/Информация : Advanced Video Codec
Профиль формата : High@L4.1
Параметр CABAC формата : Да
Параметр ReFrames формата : 5 кадров
Идентификатор кодека : V_MPEG4/ISO/AVC
Продолжительность : 1 ч. 38 м.
Битрейт : 13,6 Мбит/сек
Ширина : 1920 пикселей
Высота : 800 пикселей
Соотношение сторон : 2,40:1
Режим частоты кадров : Постоянный
Частота кадров : 23,976 кадра/сек
Цветовое пространство : YUV
Субдискретизация насыщенности : 4:2:0
Битовая глубина : 8 бит
Тип развёртки : Прогрессивная
Бит/(Пиксели*Кадры) : 0.370
Размер потока : 9,33 Гбайт (85%)
Библиотека кодирования : x264 core 142 r2479kMod dd79a61
Настройки программы : cabac=1 / ref=5 / deblock=1:-3:-3 / analyse=0x3:0x133 / me=tesa / subme=11 / psy=1 / fade_compensate=0.00 / psy_rd=1.05:0.00 / mixed_ref=1 / me_range=24 / chroma_me=1 / trellis=2 / 8x8dct=1 / cqm=0 / deadzone=21,11 / fast_pskip=0 / chroma_qp_offset=-2 / threads=12 / lookahead_threads=2 / sliced_threads=0 / nr=0 / decimate=1 / interlaced=0 / bluray_compat=0 / constrained_intra=0 / fgo=0 / bframes=7 / b_pyramid=2 / b_adapt=2 / b_bias=0 / direct=3 / weightb=1 / open_gop=0 / weightp=2 / keyint=240 / keyint_min=22 / scenecut=40 / intra_refresh=0 / rc_lookahead=60 / rc=crf / mbtree=0 / crf=17.5500 / qcomp=0.80 / qpmin=0 / qpmax=69 / qpstep=4 / vbv_maxrate=50000 / vbv_bufsize=62500 / crf_max=0.0 / nal_hrd=none / filler=0 / ip_ratio=1.34 / pb_ratio=1.24 / aq=1:0.70 / zones=2215,2920,crf=9/4733,4788,crf=10/6056,6119,crf=8.8
Язык : English
Default : Да
Forced : Нет
Основные цвета : BT.709
Характеристики трансфера : BT.709
Коэффициенты матрицы : BT.709
DURATION : 01:38:04.587000000
NUMBER_OF_FRAMES : 141089
NUMBER_OF_BYTES : 10252318113
_STATISTICS_WRITING_APP : mkvmerge v7.2.0 ('On Every Street') 64bit built on Sep 13 2014 15:52:10
_STATISTICS_WRITING_DATE_UTC : 2014-12-04 16:49:03
_STATISTICS_TAGS : BPS DURATION NUMBER_OF_FRAMES NUMBER_OF_BYTES

Аудио #1
Идентификатор : 2
Формат : AC-3
Формат/Информация : Audio Coding 3
Расширение режима : CM (complete main)
Параметр Endianness формата : Big
Идентификатор кодека : A_AC3
Продолжительность : 1 ч. 38 м.
Вид битрейта : Постоянный
Битрейт : 640 Кбит/сек
Каналы : 6 каналов
Расположение каналов : Front: L C R, Side: L R, LFE
Частота : 48,0 КГц
Битовая глубина : 16 бит
Метод сжатия : С потерями
Размер потока : 449 Мбайт (4%)
Заголовок : AC3 DD 5.1 @ 640 Kbps DUB - BluRay EUR
Язык : Russian
Default : Да
Forced : Нет

Аудио #2
Идентификатор : 3
Формат : DTS
Формат/Информация : Digital Theater Systems
Режим : 16
Параметр Endianness формата : Big
Идентификатор кодека : A_DTS
Продолжительность : 1 ч. 38 м.
Вид битрейта : Постоянный
Битрейт : 1510 Кбит/сек
Каналы : 6 каналов
Расположение каналов : Front: L C R, Side: L R, LFE
Частота : 48,0 КГц
Битовая глубина : 24 бит
Метод сжатия : С потерями
Размер потока : 1,03 Гбайт (9%)
Заголовок : DTS DD 5.1 @ 1510 Kbps Original - BluRay EUR
Язык : English
Default : Нет
Forced : Нет

Текст #1
Идентификатор : 4
Формат : UTF-8
Идентификатор кодека : S_TEXT/UTF8
Идентификатор кодека/Информация : UTF-8 Plain Text
Заголовок : Forced
Язык : Russian
Default : Да
Forced : Да

Текст #2
Идентификатор : 5
Формат : UTF-8
Идентификатор кодека : S_TEXT/UTF8
Идентификатор кодека/Информация : UTF-8 Plain Text
Заголовок : Full
Язык : Russian
Default : Нет
Forced : Нет

Текст #3
Идентификатор : 6
Формат : UTF-8
Идентификатор кодека : S_TEXT/UTF8
Идентификатор кодека/Информация : UTF-8 Plain Text
Язык : English
Default : Нет
Forced : Нет

Текст #4
Идентификатор : 7
Формат : UTF-8
Идентификатор кодека : S_TEXT/UTF8
Идентификатор кодека/Информация : UTF-8 Plain Text
Заголовок : SDH
Язык : English
Default : Нет
Forced : Нет

Меню
00:00:00.000 : en:Chapter 01
00:08:10.781 : en:Chapter 02
00:14:15.813 : en:Chapter 03
00:23:38.250 : en:Chapter 04
00:30:02.050 : en:Chapter 05
00:39:31.869 : en:Chapter 06
00:48:16.059 : en:Chapter 07
00:54:12.999 : en:Chapter 08
01:02:26.492 : en:Chapter 09
01:12:36.727 : en:Chapter 10
01:20:57.769 : en:Chapter 11
01:30:52.071 : en:Chapter 12
Свернуть
Знаете ли вы, что...
Фильм основан на графическом романе «Hercules: The Thracian Wars» (2008).

Для того чтобы научиться удерживать равновесие при вождении колесницы, актеры ежедневно тренировались на протяжении 6 недель.

Каждый съемочный день уходило по 4 часа, чтобы нанести весь необходимый грим на Дуэйна Джонсона.

Чтобы набрать необходимую для своей роли форму Дуэйн Джонсон тренировался на протяжении восьми месяцев.

Дуэйн Джонсон рассказал, что его борода была сделана из шерсти яка.

Специально для своей роли Ингрид Больсё Бердаль несколько месяцев обучалась стрельбе из лука у Стивена Ральфса.

Съемки фильма проходили в Будапеште (Венгрия). Были задействованы съемочные площадки Origio Film Studios.

Несмотря на то, что на момент начала съемок Дуэйн Джонсон только оправился после операции, он настоял на том, что желает сам сниматься в сценах сражений, не прибегая к помощи дублеров.

Лошадей, которых использовали на съемках фильма, тщательно тренировали на протяжении многих месяцев, чтобы они падали во время боя, а также тащили колесницу управляемую Гераклом и его соратниками.

Свернуть
Скриншоты
Изображение
Изображение
Изображение
Свернуть
 sashannov нравится это.
Не в сети
Профиль  
 Добавлено: 2015-01-09 19:14 (спустя 1 месяц 4 дня)
Аватара пользователя
Стаж: 7 лет 8 месяцев
Возраст: 38
Сообщений: 573
Спасибок: 506
Лайков: 1
фильм не осилил и на четверть. геракл вечно улыбается и прикалывается...музон отстойный...даже до царя скорпионов не дотягивает фильмец...не говоря уж про такие фильмы как гладиатор...не советую тратить время на просмотр.
Не в сети
Профиль  
Начать новую темуОтветить на тему  [ Сообщений: 2 ] 
Вы не можете начинать темы
Вы не можете отвечать на сообщения
Вы не можете редактировать свои сообщения
Вы не можете удалять свои сообщения