Правила форума

  • В этом разделе создание новых тем Запрещено.
  • Для создания новых тем пользуйтесь Корневым разделом DVD и HD фильмы.
Начать новую темуОтветить на тему  [ Сообщений: 2 ] 
Торрент файл
Размер: 5.24 GB • Зарегистрирован: 5 лет 10 месяцев • Статус: Проверено
Скачан: 84 раза • Желающих скачать: 0 • Поблагодарили: 16 раз
 Раздают: 0  |  0 KB/s  ]   Качают: 0  |  0 KB/s  ] 
 Полного источника не было 1 год 
Сообщения
 Добавлено: 2011-01-12 12:18
Top-releaser
Аватара пользователя
Стаж: 6 лет 11 месяцев
Возраст: 45
Сообщений: 299
Спасибок: 4106
Лайков: 3
Геймер / Gamer
«Кто играет тобой?»

Изображение
Изображение

Год выпуска: 2009
Страна: США
Жанр: фантастика, боевик, триллер
Продолжительность: 01:34:46
Перевод: Профессиональный (полное дублирование)

Режиссер: Марк Невелдайн / Mark Neveldine, Брайан Тейлор / Brian Taylor
Сценарий: Марк Невелдайн / Mark Neveldine, Брайан Тейлор / Brian Taylor
Продюсер: Гари Лучези / Gary Lucchesi, Ричард С. Райт / Richard S. Wright, Джеймс МакКуайд / James McQuaide, Марк Невелдайн / Mark Neveldine, Майкл Пасернек / Michael Paseornek
Оператор: Эккхарт Поллак / Ekkehart Pollack
Композитор: Робб Уильямсон / Robb Williamson, Джеф Дзанелли / Geoff Zanelli

В ролях: Джерард Батлер (Kable / John Tillman), Эмбер Валлетта (Angie), Майкл С. Холл (Ken Castle), Кира Седжвик (Gina Parker Smith), Логан Лерман (Simon Silverton), Элисон Ломан (Trace), Терри Крюс (Hackman), Рэмси Мур (Gorge), Лудакрис (Humanz Brother), Аарон Йу (Humanz Dude), Джонатан Чейз (Geek Leader), Дэн Каллахан (Backup Geek)
Описание: Действие фильма происходит в недалёком утопическом будущем, где высочайшее развитие нанотехнологий позволило технологическому гению Кену Кастлу соединить видеоигру с реалити-шоу и смоделировать ультрафункциональную, мультиплеерную игру «Убийцы», которая стала средой обитания местных преступников.
Джон Тиллман, приговоренный к пожизненному заключению за преступление, которого не совершал, должен принять участие в Игре, чтобы получить свободу. Для одного богатого молодого игрока Джон Тиллман это - Кэйбл, всего лишь сим, управляемый персонаж игры. Благодаря своим боевым способностям и физической силе, Кэйбл становится национальным героем и занимает первые позиции в игре.
Каждую неделю миллионы людей во всём мире в режиме онлайн следят за ним и сотней других смертников, которые участвуют в битвах игры. По мнению группы мятежников, которая противостоит Кастлу, его игра - это высокотехнологичное рабство, а он является тем критическим элементом, который необходимо уничтожить. Кэйбл/Тиллман оказался между двумя мощными противоборствующими силами, которые не заинтересованы в том, чтобы он выжил. С каждым шагом, за которым наблюдают миллионы, Джон Тилман сражается, чтобы получить свободу, восстановить свою личность и низвергнуть систему, которая его заключила в тюрьму.

Изображение
Бюджет: $60 000 000
Сборы в США: $20 534 907
Сборы в России: $2 274 974
Сборы в мире: $40 828 540
Мировая премьера: 3 сентября 2009
Релиз на DVD: 2 марта 2010, «West Video»
Релиз на Blu-ray: 3 марта 2010, «West Video»
Изображение

MPAA: Изображение - Лицам до 17 лет обязательно присутствие взрослого
Качество: BDRip
Формат: Matroska
Видео: AVC; 1280x694 (16:9); 5805 Kbps; 23,976 fps; 0,273 bpp
Аудио №1: Russian; AC3; 48 KHz; 448 Kbps; CBR; 6 ch; [Профессиональный (полное дублирование)]
Аудио №2: English; DTS; 48 KHz; 1509 Kbps; CBR; 6 ch; 16 bit; [Original]
Субтитры №1: Russian
Субтитры №2: Ukrainian
Субтитры №3: English

Раздача группы:Изображение Релиз группы: Изображение

"MediaInfo"

Общее
Уникальный идентификатор : 200090958530789703563244480926348858876 (0x96881DEAC52D15DC801240ABF0ADD5FC)
Полное имя : Gamer.2009.720p.BDrip.[R.G.Daredevil].mkv
Формат : Matroska
Размер файла : 5,24 Гбайт
Продолжительность : 1 ч. 34 м.
Общий поток : 7921 Кбит/сек
Название фильма : Gamer (2009) - Release for HDCLUB
Дата кодирования : UTC 2010-03-08 22:40:23
Программа кодирования : mkvmerge v3.0.0 ('Hang up your Hang-Ups') built on Dec 12 2009 15:20:35
Библиотека кодирования : libebml v0.7.9 + libmatroska v0.8.1

Видео
Идентификатор : 1
Формат : AVC
Формат/Информация : Advanced Video Codec
Профиль формата : High@L4.1
Параметр CABAC формата : Да
Параметр ReFrames формата : 9 кадры
Идентификатор кодека : V_MPEG4/ISO/AVC
Продолжительность : 1 ч. 34 м.
Битрейт : 5971 Кбит/сек
Ширина : 1280 пикс.
Высота : 694 пикс.
Соотношение сторон : 16:9
Частота кадров : 23,976 кадр/сек
Частота кадров в оригинале : 24,000 кадр/сек
Цветовое пространство : YUV
Подвыборка цветности : 4:2:0
Битовая глубина : 8 бит
Тип развёртки : Прогрессивная
Бит/(Пиксели*Кадры) : 0.280
Размер потока : 3,84 Гбайт (73%)
Заголовок : Release for HDCLUB
Библиотека кодирования : x264 core 80 r1376M 3feaec2
Настройки программы : cabac=1 / ref=9 / deblock=1:-3:-3 / analyse=0x3:0x113 / me=umh / subme=9 / psy=1 / psy_rd=0.9:0.1 / mixed_ref=1 / me_range=48 / chroma_me=1 / trellis=2 / 8x8dct=1 / cqm=0 / deadzone=21,11 / fast_pskip=0 / chroma_qp_offset=-3 / threads=6 / sliced_threads=0 / nr=0 / decimate=1 / mbaff=0 / constrained_intra=0 / bframes=6 / b_pyramid=2 / b_adapt=2 / b_bias=0 / direct=3 / wpredb=1 / wpredp=2 / keyint=250 / keyint_min=25 / scenecut=40 / rc=2pass / mbtree=0 / bitrate=5971 / ratetol=1.0 / qcomp=0.60 / qpmin=10 / qpmax=51 / qpstep=4 / cplxblur=20.0 / qblur=0.5 / ip_ratio=1.40 / pb_ratio=1.30 / aq=1:0.60
Язык : English

Аудио #1
Идентификатор : 2
Формат : AC-3
Формат/Информация : Audio Coding 3
Расширение режима : CM (complete main)
Идентификатор кодека : A_AC3
Продолжительность : 1 ч. 34 м.
Вид битрейта : Постоянный
Битрейт : 448 Кбит/сек
Канал(ы) : 6 канала(ов)
Расположение каналов : Front: L C R, Side: L R, LFE
Частота : 48,0 КГц
Битовая глубина : 16 бит
Метод сжатия : С потерями
Размер потока : 304 Мбайт (6%)
Заголовок : AC3 5.1 @ 448 kbps - Дублированный
Язык : Russian

Аудио #2
Идентификатор : 3
Формат : DTS
Формат/Информация : Digital Theater Systems
Идентификатор кодека : A_DTS
Продолжительность : 1 ч. 34 м.
Вид битрейта : Постоянный
Битрейт : 1510 Кбит/сек
Канал(ы) : 6 канала(ов)
Расположение каналов : Front: L C R, Side: L R, LFE
Частота : 48,0 КГц
Битовая глубина : 16 бит
Метод сжатия : С потерями
Размер потока : 1023 Мбайт (19%)
Заголовок : DTS 5.1 @ 1536 kbps
Язык : English

Текст #1
Идентификатор : 4
Формат : UTF-8
Идентификатор кодека : S_TEXT/UTF8
Идентификатор кодека/Информация : UTF-8 Plain Text
Язык : Russian

Текст #2
Идентификатор : 5
Формат : UTF-8
Идентификатор кодека : S_TEXT/UTF8
Идентификатор кодека/Информация : UTF-8 Plain Text
Язык : Ukrainian

Текст #3
Идентификатор : 6
Формат : UTF-8
Идентификатор кодека : S_TEXT/UTF8
Идентификатор кодека/Информация : UTF-8 Plain Text
Язык : English

Меню
00:00:00.000 : en:00:00:00.000
00:05:13.333 : en:00:05:13.333
00:12:16.292 : en:00:12:16.292
00:16:52.542 : en:00:16:52.542
00:21:01.542 : en:00:21:01.542
00:27:55.583 : en:00:27:55.583
00:32:00.042 : en:00:32:00.042
00:38:39.333 : en:00:38:39.333
00:43:40.000 : en:00:43:40.000
00:48:30.708 : en:00:48:30.708
00:55:01.167 : en:00:55:01.167
00:59:51.708 : en:00:59:51.708
01:07:32.417 : en:01:07:32.417
01:11:47.083 : en:01:11:47.083
01:17:14.208 : en:01:17:14.208
Свернуть
Изображение
"Скриншоты"

Изображение
Изображение
Изображение
Изображение
Изображение
Изображение
Изображение
Свернуть
"Знаете ли Вы, что..."
  • Одну из ролей мог исполнить Джейми Фокс.
  • Изначально проект носил название «Game».
  • Съемки «Геймера» начались еще в ноябре 2007 года и завершились до того, как на экраны вышла вторая часть «Адреналина», авторами которой также выступил тандем Невелдайн/Тейлор.
  • Также фильм мог называться - «Game Kable». В переводе на русский - «Игра Кэйбла»
  • У героя Логана Лермана есть футболка с логотипом «Crank». Это отсылка к х/ф «Адреналин», предыдущей работе Невелдайна/Тейлора.
  • Во время съемок использовали цифровую камеру «Red One», это второй фильм снятый с помощью этой камеры. Первым был «Че» Стивена Содерберга.
Свернуть
Не в сети
Профиль  
 Добавлено: 2012-01-25 13:47 (спустя 1 год)
Аватара пользователя
Стаж: 5 лет 1 месяц
Сообщений: 25
встаньте пожалуйста на раздачу
Не в сети
Профиль  
Начать новую темуОтветить на тему  [ Сообщений: 2 ] 
Вы не можете начинать темы
Вы не можете отвечать на сообщения
Вы не можете редактировать свои сообщения
Вы не можете удалять свои сообщения