Правила форума

  • В этом разделе создание новых тем Запрещено.
  • Для создания новых тем пользуйтесь Корневым разделом DVD и HD фильмы.
Начать новую темуОтветить на тему  [ 1 сообщение ] 
Торрент файл
Размер: 7.76 GB • Зарегистрирован: 3 года 4 месяца • Статус: Проверено
Скачан: 42 раза • Желающих скачать: 0 • Поблагодарили: 16 раз
 Раздают: 0  |  0 KB/s  ]   Качают: 0  |  0 KB/s  ] 
 Полного источника не было 6 месяцев 
Сообщения
 Добавлено: 2013-07-09 20:07
Модератор релиз-группы
Аватара пользователя
Стаж: 9 лет 1 месяц
Возраст: 97
Сообщений: 11659
Спасибок: 6532
Лайков: 269
Глубина / Below

Изображение


Год выпуска: 2002
Страна: сша
Жанр: ужасы, триллер, детектив
Продолжительность: 01:45:19
Перевод: Профессиональный (дубляж) + Профессиональный (многоголосый закадровый) + Профессиональный (двухголосый закадровый) + Оригинальная звуковая дорожка

Режиссёр: Дэвид Туи
В ролях: Мэттью Дэвис, Брюс Гринвуд, Оливия Уильямс, Холт МакКэллани, Скотт Фоули, Зак Галифианакис, Джейсон Флеминг, Декстер Флетчер, Ник Чинланд, Эндрю Ховард
Описание: Разгар Второй мировой войны. Американская подводная лодка «Манта», посланная на выручку оставшимся в живых членам экипажа британского плавучего госпиталя, вынуждена скрываться на глубине от шныряющих ближе к поверхности немецких субмарин. Уходя ближе к дну, подводники обнаруживают, что там, внизу, есть еще что-то - явно не нацистские судна, нечто необъяснимое и, возможно, сверхъестественное.
Изображение

Качество: BDRip 1080p
Формат: mkv
Видео кодек: MPEG-4
Аудио кодек: AC3 (Dolby Digital)
Видео: V_MPEG-4/ISO/AVC, ~8900 кбит/с, 1920x1080, 23.976 кадра/сек
Аудио #1: Русский, АС3, 6 ch, 16 бит, 384 Кбит/с [Профессиональный (дубляж)]
Аудио #2: Русский, АС3, 6 ch, 16 бит, 448 Кбит/с [Профессиональный (многоголосый закадровый)]
Аудио #3: Русский, АС3, 6 ch, 16 бит, 384 Кбит/с [Профессиональный (двухголосый закадровый)]
Аудио #4: Русский, АС3, 6 ch, 16 бит, 384 Кбит/с [Оригинальная звуковая дорожка]
Субтитры: русские
Скриншоты
Изображение
Изображение
Изображение
Свернуть
Mi
General
Unique ID : 241047353762823435679791068415436831376 (0xB558081B0C2AA663B51058660240BA90)
Complete name : D:\Below.BDRip.2002.1080p.mkv
Format : Matroska
Format version : Version 4 / Version 2
File size : 7.76 GiB
Duration : 1h 45mn
Overall bit rate : 10.5 Mbps
Movie name : ~V~
Encoded date : UTC 2013-04-09 04:09:00
Writing application : mkvmerge v6.1.0 ('Old Devil') built on Mar 2 2013 14:32:37
Writing library : libebml v1.3.0 + libmatroska v1.4.0

Video
ID : 1
Format : AVC
Format/Info : Advanced Video Codec
Format profile : High@L4.1
Format settings, CABAC : Yes
Format settings, ReFrames : 4 frames
Codec ID : V_MPEG4/ISO/AVC
Duration : 1h 45mn
Bit rate : 8 896 Kbps
Width : 1 920 pixels
Height : 1 080 pixels
Display aspect ratio : 16:9
Frame rate mode : Constant
Frame rate : 23.976 fps
Color space : YUV
Chroma subsampling : 4:2:0
Bit depth : 8 bits
Scan type : Progressive
Bits/(Pixel*Frame) : 0.179
Stream size : 6.38 GiB (82%)
Writing library : x264 core 125 r2208 d9d2288
Encoding settings : cabac=1 / ref=4 / deblock=1:0:0 / analyse=0x3:0x113 / me=umh / subme=8 / psy=1 / psy_rd=1.00:0.00 / mixed_ref=1 / me_range=16 / chroma_me=1 / trellis=1 / 8x8dct=1 / cqm=0 / deadzone=21,11 / fast_pskip=1 / chroma_qp_offset=-2 / threads=12 / lookahead_threads=2 / sliced_threads=0 / nr=0 / decimate=1 / interlaced=0 / bluray_compat=0 / constrained_intra=0 / bframes=3 / b_pyramid=2 / b_adapt=2 / b_bias=0 / direct=3 / weightb=1 / open_gop=0 / weightp=2 / keyint=240 / keyint_min=24 / scenecut=40 / intra_refresh=0 / rc_lookahead=50 / rc=2pass / mbtree=1 / bitrate=8896 / ratetol=1.0 / qcomp=0.60 / qpmin=0 / qpmax=69 / qpstep=4 / cplxblur=20.0 / qblur=0.5 / ip_ratio=1.40 / aq=1:1.00
Language : English
Default : Yes
Forced : No

Audio #1
ID : 2
Format : AC-3
Format/Info : Audio Coding 3
Mode extension : CM (complete main)
Format settings, Endianness : Big
Codec ID : A_AC3
Duration : 1h 45mn
Bit rate mode : Constant
Bit rate : 384 Kbps
Channel(s) : 6 channels
Channel positions : Front: L C R, Side: L R, LFE
Sampling rate : 48.0 KHz
Bit depth : 16 bits
Compression mode : Lossy
Stream size : 289 MiB (4%)
Title : Дубляж
Language : Russian
Default : Yes
Forced : No

Audio #2
ID : 3
Format : AC-3
Format/Info : Audio Coding 3
Mode extension : CM (complete main)
Format settings, Endianness : Big
Codec ID : A_AC3
Duration : 1h 45mn
Bit rate mode : Constant
Bit rate : 448 Kbps
Channel(s) : 6 channels
Channel positions : Front: L C R, Side: L R, LFE
Sampling rate : 48.0 KHz
Bit depth : 16 bits
Compression mode : Lossy
Stream size : 338 MiB (4%)
Title : Многоголосный закадровый
Language : Russian
Default : No
Forced : No

Audio #3
ID : 4
Format : AC-3
Format/Info : Audio Coding 3
Mode extension : CM (complete main)
Format settings, Endianness : Big
Codec ID : A_AC3
Duration : 1h 45mn
Bit rate mode : Constant
Bit rate : 384 Kbps
Channel(s) : 6 channels
Channel positions : Front: L C R, Side: L R, LFE
Sampling rate : 48.0 KHz
Bit depth : 16 bits
Compression mode : Lossy
Stream size : 289 MiB (4%)
Title : двухголосный закадровый
Language : Russian
Default : No
Forced : No

Audio #4
ID : 6
Format : AC-3
Format/Info : Audio Coding 3
Mode extension : CM (complete main)
Format settings, Endianness : Big
Codec ID : A_AC3
Duration : 1h 45mn
Bit rate mode : Constant
Bit rate : 448 Kbps
Channel(s) : 2 channels
Channel positions : Front: L R
Sampling rate : 48.0 KHz
Bit depth : 16 bits
Compression mode : Lossy
Stream size : 338 MiB (4%)
Title : Оригинал
Language : English
Default : No
Forced : No

Text
ID : 5
Format : UTF-8
Codec ID : S_TEXT/UTF8
Codec ID/Info : UTF-8 Plain Text
Language : Russian
Default : No
Forced : No

Menu
00:00:00.000 : en:00:00:00.000
00:06:36.396 : en:00:06:36.396
00:12:52.689 : en:00:12:52.689
00:19:55.194 : en:00:19:55.194
00:27:02.830 : en:00:27:02.830
00:33:47.025 : en:00:33:47.025
00:39:25.363 : en:00:39:25.363
00:44:08.771 : en:00:44:08.771
00:51:59.116 : en:00:51:59.116
01:01:03.660 : en:01:01:03.660
01:07:52.694 : en:01:07:52.694
01:14:27.421 : en:01:14:27.421
01:27:50.474 : en:01:27:50.474
01:32:31.087 : en:01:32:31.087
01:35:45.740 : en:01:35:45.740

Свернуть
Не в сети
Профиль  
Начать новую темуОтветить на тему  [ 1 сообщение ] 
Вы не можете начинать темы
Вы не можете отвечать на сообщения
Вы не можете редактировать свои сообщения
Вы не можете удалять свои сообщения