Правила форума

  • В этом разделе создание новых тем Запрещено.
  • Для создания новых тем пользуйтесь Корневым разделом DVD и HD фильмы.
Начать новую темуОтветить на тему  [ Сообщений: 3 ] 
Торрент файл
Размер: 14.23 GB • Зарегистрирован: 4 года • Статус: Проверено
Скачан: 47 раз • Желающих скачать: 0 • Поблагодарили: 7 раз
 Раздают: 0  |  0 KB/s  ]   Качают: 0  |  0 KB/s  ] 
 Полного источника не было 3 года 2 месяца 
Сообщения
 Добавлено: 2012-11-06 18:50
Книголюб
Аватара пользователя
Стаж: 7 лет 2 месяца
Сообщений: 2823
Спасибок: 48823
Лайков: 73
Глубина семь футов
Seven Below

Изображение


Год выпуска: 2012
Страна: США
Жанр: Триллер, Ужасы
Продолжительность: 01:32:24
Перевод: Профессиональный (многоголосый закадровый)

Режиссёр: Кевин Каррауэй
В ролях: Вэл Килмер, Винг Реймз, Люк Госс, Бонни Соммервиль, Мэтт Барр, Кристиан Баха, Ребекка Да Коста, Брайана Ли Джонсон, Кейли Хоуланд, Сильвио Вульф Буш
Описание: История, о которой рассказывается в фильме, началась задолго до описываемых событий. В 1910 году 10-летний мальчик по имени Шон убил свою мать, отца и двух маленьких сестер. А теперь Адам, его брат Исаак и четверо других путешественников попадают в ловушку в том самом доме, где было совершено преступление 100-летней давности.
Рейтинг MPAA: Рейтинг R (Подростки до 17 лет допускаются на фильм только в сопровождении одного из родителей)
Мировая премьера: 17 апреля 2012

Качество: Blu-Ray Remux 1080p.
Формат: MKV
Видео кодек: H.264
Аудио кодек: AC3 (Dolby Digital)
Видео: 1920x1080 23.976fps 19.5 Mbps 0.392Bits/Pixel
Аудио #1: Rus:48000Hz 6ch 384 Kbps (многоголосый закадровый) R5
Аудио #2: Rus:48000Hz stereo 192 Kbps (двухголосый закадровый) Чип и Дейл
Аудио #3: Eng:DTS 48000Hz 6ch 561 Kbps
Скриншоты
Изображение
Изображение
Изображение
Свернуть

MediaInfo
General
Unique ID : 250702231853345951064350103158191369239 (0xBC9B7E58F8DDDED3963F288A491D2C17)
Complete name : K:\Torrent\Seven Below..mkv
Format : Matroska
Format version : Version 2
File size : 14.2 GiB
Duration : 1h 32mn
Overall bit rate mode : Variable
Overall bit rate : 22.0 Mbps
Encoded date : UTC 2012-11-04 13:20:06
Writing application : mkvmerge v5.8.0 ('No Sleep / Pillow') built on Sep 2 2012 15:37:04
Writing library : libebml v1.2.3 + libmatroska v1.3.0

Video
ID : 1
Format : AVC
Format/Info : Advanced Video Codec
Format profile : High@L4.1
Format settings, CABAC : Yes
Format settings, ReFrames : 3 frames
Muxing mode : Container profile=Unknown@0.0
Codec ID : V_MPEG4/ISO/AVC
Duration : 1h 32mn
Bit rate mode : Variable
Bit rate : 19.5 Mbps
Maximum bit rate : 25.0 Mbps
Width : 1 920 pixels
Height : 1 080 pixels
Display aspect ratio : 16:9
Frame rate : 23.976 fps
Standard : NTSC
Color space : YUV
Chroma subsampling : 4:2:0
Bit depth : 8 bits
Scan type : Progressive
Bits/(Pixel*Frame) : 0.392
Stream size : 12.6 GiB (88%)
Default : Yes
Forced : No
Color primaries : BT.709-5, BT.1361, IEC 61966-2-4, SMPTE RP177
Transfer characteristics : BT.709-5, BT.1361
Matrix coefficients : BT.709-5, BT.1361, IEC 61966-2-4 709, SMPTE RP177

Audio #1
ID : 2
Format : AC-3
Format/Info : Audio Coding 3
Mode extension : CM (complete main)
Codec ID : A_AC3
Duration : 1h 32mn
Bit rate mode : Constant
Bit rate : 384 Kbps
Channel(s) : 6 channels
Channel positions : Front: L C R, Side: L R, LFE
Sampling rate : 48.0 KHz
Bit depth : 16 bits
Compression mode : Lossy
Stream size : 254 MiB (2%)
Title : MVO, R5
Language : Russian
Default : Yes
Forced : No

Audio #2
ID : 3
Format : AC-3
Format/Info : Audio Coding 3
Mode extension : CM (complete main)
Codec ID : A_AC3
Duration : 1h 32mn
Bit rate mode : Constant
Bit rate : 192 Kbps
Channel(s) : 2 channels
Channel positions : Front: L R
Sampling rate : 48.0 KHz
Bit depth : 16 bits
Compression mode : Lossy
Stream size : 127 MiB (1%)
Title : DVO (Чип и Дейл)
Language : Russian
Default : No
Forced : No

Audio #3
ID : 4
Format : DTS
Format/Info : Digital Theater Systems
Format profile : MA / Core
Codec ID : A_DTS
Duration : 1h 32mn
Bit rate mode : Variable
Bit rate : 1 561 Kbps / 1 510 Kbps
Channel(s) : 6 channels
Channel positions : Front: L C R, Side: L R, LFE
Sampling rate : 48.0 KHz
Bit depth : 16 bits
Compression mode : Lossless / Lossy
Language : English
Default : No
Forced : No

Text
ID : 5
Format : UTF-8
Codec ID : S_TEXT/UTF8
Codec ID/Info : UTF-8 Plain Text
Language : English
Default : No
Forced : No

Menu
00:00:00.000 : :Chapter 01
00:06:59.961 : :Chapter 02
00:13:59.964 : :Chapter 03
00:20:59.967 : :Chapter 04
00:27:59.928 : :Chapter 05
00:34:59.931 : :Chapter 06
00:41:59.934 : :Chapter 07
00:48:59.895 : :Chapter 08
00:53:59.945 : :Chapter 09
01:02:59.942 : :Chapter 10
01:09:59.945 : :Chapter 11
01:16:59.906 : :Chapter 12
Свернуть


Последний раз редактировалось coldun 2012-11-08 20:05, всего редактировалось 1 раз.
Не в сети
Профиль  
 Добавлено: 2012-11-16 22:10 (спустя 10 дней)
Аватара пользователя
Стаж: 8 лет 3 месяца
Возраст: 29
Сообщений: 109
Спасибок: 3
как фильм то?
_________________
Изображение
Не в сети
Профиль  
 Добавлено: 2012-11-17 08:52 (спустя 10 часов)
Стаж: 5 лет 10 месяцев
Сообщений: 280
Лайков: 8
да так себе Килмер уже сам не касса.
Не в сети
Профиль  
Начать новую темуОтветить на тему  [ Сообщений: 3 ] 
Вы не можете начинать темы
Вы не можете отвечать на сообщения
Вы не можете редактировать свои сообщения
Вы не можете удалять свои сообщения