Правила форума

  • В этом разделе создание новых тем Запрещено.
  • Для создания новых тем пользуйтесь Корневым разделом DVD и HD фильмы.
Начать новую темуОтветить на тему  [ Сообщений: 5 ] 
Торрент файл
Размер: 4.62 GB • Зарегистрирован: 4 года 7 месяцев • Статус: T Временный релиз
Скачан: 63 раза • Желающих скачать: 0 • Поблагодарили: 9 раз
 Раздают: 0  |  0 KB/s  ]   Качают: 0  |  0 KB/s  ] 
 Полного источника не было 3 года 2 месяца 
Сообщения
 Добавлено: 2012-04-15 19:06
Книголюб
Аватара пользователя
Стаж: 7 лет 2 месяца
Сообщений: 2823
Спасибок: 48830
Лайков: 73
Глубина семь футов
Seven Below

Изображение


Год выпуска: 2012
Страна: США
Жанр: ужасы, триллер
Продолжительность: 01:32:23
Перевод: Любительский (многоголосый закадровый)

Режиссёр: Кевин Каррауэй
В ролях: Вэл Килмер, Винг Реймз, Люк Госс, Бонни Соммервиль, Мэтт Барр, Кристиан Баха, Ребекка Да Коста, Брайана Ли Джонсон, Кейли Хоуланд, Сильвио Вульф Буш
Описание: История, о которой рассказывается в фильме, началась задолго до описываемых событий. В 1910 году 10-летний мальчик по имени Шон убил свою мать, отца и двух маленьких сестер. А теперь Адам, его брат Исаак и четверо других путешественников попадают в ловушку в том самом доме, где было совершено преступление 100-летней давности.
Рейтинг MPAA: Рейтинг R (Подростки до 17 лет допускаются на фильм только в сопровождении одного из родителей)
Мировая премьера: 17 апреля 2012

Качество: BDRip 720p
Формат: MKV
Видео кодек: H264
Аудио кодек: AC3 (Dolby Digital)
Видео: 5225 kb/s, 1280x720 23.976fps 0.236Bits/Pixel
Аудио #1: Russian: AC3, 384 kb/s (6 ch) 48000H
Аудио #2: English: DTS, 1510 kb/s (6 ch) 48000H
Субтитры: English
MediaInfo
General
Unique ID : 237061747480076498477902973854575463531 (0xB2586E8B5DD4D7C38D2CF01348038C6B)
Complete name : D:\Glybina.7.Futov..mkv
Format : Matroska
Format version : Version 2
File size : 4.62 GiB
Duration : 1h 32mn
Overall bit rate : 7 114 Kbps
Encoded date : UTC 2012-04-12 18:20:26
Writing application : mkvmerge v4.2.0 ('No Talking') сборка от Jul 28 2010 18:38:23
Writing library : libebml v1.0.0 + libmatroska v1.0.0

Video
ID : 1
Format : AVC
Format/Info : Advanced Video Codec
Format profile : High@L4.1
Format settings, CABAC : Yes
Format settings, ReFrames : 5 frames
Muxing mode : Header stripping
Codec ID : V_MPEG4/ISO/AVC
Duration : 1h 32mn
Bit rate : 5 225 Kbps
Width : 1 280 pixels
Height : 720 pixels
Display aspect ratio : 16:9
Frame rate : 23.976 fps
Color space : YUV
Chroma subsampling : 4:2:0
Bit depth : 8 bits
Scan type : Progressive
Bits/(Pixel*Frame) : 0.236
Stream size : 3.30 GiB (71%)
Writing library : x264 core 122 r2184 5c85e0a
Encoding settings : cabac=1 / ref=5 / deblock=1:0:0 / analyse=0x3:0x133 / me=umh / subme=7 / psy=1 / psy_rd=1.00:0.00 / mixed_ref=1 / me_range=16 / chroma_me=1 / trellis=1 / 8x8dct=1 / cqm=0 / deadzone=21,11 / fast_pskip=0 / chroma_qp_offset=-2 / threads=18 / sliced_threads=0 / nr=0 / decimate=1 / interlaced=0 / bluray_compat=0 / constrained_intra=0 / bframes=3 / b_pyramid=2 / b_adapt=1 / b_bias=0 / direct=1 / weightb=1 / open_gop=0 / weightp=2 / keyint=250 / keyint_min=23 / scenecut=40 / intra_refresh=0 / rc_lookahead=40 / rc=2pass / mbtree=1 / bitrate=5225 / ratetol=1.0 / qcomp=0.60 / qpmin=0 / qpmax=69 / qpstep=4 / cplxblur=20.0 / qblur=0.5 / ip_ratio=1.40 / aq=1:1.00
Language : English
Default : Yes
Forced : No

Audio #1
ID : 2
Format : AC-3
Format/Info : Audio Coding 3
Mode extension : CM (complete main)
Muxing mode : Header stripping
Codec ID : A_AC3
Duration : 1h 32mn
Bit rate mode : Constant
Bit rate : 384 Kbps
Channel(s) : 6 channels
Channel positions : Front: L C R, Side: L R, LFE
Sampling rate : 48.0 KHz
Bit depth : 16 bits
Compression mode : Lossy
Stream size : 255 MiB (5%)
Language : Russian
Default : Yes
Forced : No

Audio #2
ID : 3
Format : DTS
Format/Info : Digital Theater Systems
Muxing mode : Header stripping
Codec ID : A_DTS
Duration : 1h 32mn
Bit rate mode : Constant
Bit rate : 1 510 Kbps
Channel(s) : 6 channels
Channel positions : Front: L C R, Side: L R, LFE
Sampling rate : 48.0 KHz
Bit depth : 24 bits
Compression mode : Lossy
Delay relative to video : 11ms
Stream size : 1 003 MiB (21%)
Language : English
Default : No
Forced : No

Text
ID : 4
Format : UTF-8
Codec ID : S_TEXT/UTF8
Codec ID/Info : UTF-8 Plain Text
Language : English
Default : No
Forced : No

Menu
00:00:00.000 : en:00:00:00.000
00:08:48.528 : en:00:08:48.528
00:16:51.636 : en:00:16:51.636
00:24:24.463 : en:00:24:24.463
00:31:38.772 : en:00:31:38.772
00:40:06.529 : en:00:40:06.529
00:48:42.503 : en:00:48:42.503
00:57:08.842 : en:00:57:08.842
01:04:53.139 : en:01:04:53.139
01:10:07.745 : en:01:10:07.745
01:20:10.139 : en:01:20:10.139
01:29:31.533 : en:01:29:31.533


Свернуть

Скриншоты
Изображение
Изображение
Изображение
Изображение
Свернуть
Не в сети
Профиль  
 Добавлено: 2012-04-19 20:12 (спустя 4 дня)
Стаж: 6 лет 6 месяцев
Сообщений: 175
Лайков: 2
Спасибо. Здравствуйте что же за конвектор BD Rip такой у Вас, видио не кажет во многих фильмах по медио плееру у нас icon bit 7 мы Bам уже писали ответа нет,не вобиду. Этому конвектору нужно дать кличку далой пиратство,да здравствует кошелёк чиновника,все за лицухой по 3 тысячи.р, за кинофильм,ДА В ДРУГОЙ ЖИЗНИ.Мы не любим смотреть по компютеру, с плеера и по телевизору.Пожалуйста ликвидируйте этот конвектор.Спасибо.ДА ЗДРАВСТВУЮТ ТОРЕННТЫ.
Не в сети
Профиль  
 Добавлено: 2012-04-21 14:58 (спустя 1 день 18 часов)
Аватара пользователя
Стаж: 8 лет 6 месяцев
Сообщений: 478
Спасибок: 365
Конвектор - это прибор для обогрева воздуха, методом конвекции.
При чем тут BD-Rip не понял, но тоже призываю его ликвидировать, ведь если они научились жать рипы - восстание машин не за горами! :ps_ih:
Не в сети
Профиль  
 Добавлено: 2012-04-30 19:03 (спустя 9 дней)
Стаж: 6 лет 6 месяцев
Сообщений: 175
Лайков: 2
Ну вот опять обхамили,попробуем с добратой,люди добрые кто понимает в медиоплеерах iconbit 7, с этим фильмом Видио инфор: unknown,0х0,0fps,вот это чё за дермо :ne_znayu: у этого фильма всё видио подходит, Видео кодек: H264, Видео: 5225 kb/s, 1280x720 23.976fps 0.236Bits/Pixel.А может мы при скачки по пять фильмов качаем и глючут файлы? ну незнаем мы, вот обидно, модераторы и их колеги вы же знаете в чём дело ответти кто нибудь,Спасибо. :ny_tik:
Не в сети
Профиль  
 Добавлено: 2012-04-30 20:32 (спустя 1 час 29 минут)
Стаж: 8 лет 2 месяца
Возраст: 39
Сообщений: 12
Спасибок: 15
Найдите вот тут http://www.iconbit.ru/products/players/ свой плеер, тыкните в него, внизу найдете "Файлы для скачивания". Скачайте последнюю прошивку и обновите плеер.
Не в сети
Профиль  
Начать новую темуОтветить на тему  [ Сообщений: 5 ] 
Вы не можете начинать темы
Вы не можете отвечать на сообщения
Вы не можете редактировать свои сообщения
Вы не можете удалять свои сообщения