Правила форума

  • В этом разделе создание новых тем Запрещено.
  • Для создания новых тем пользуйтесь Корневым разделом DVD и HD фильмы.
Начать новую темуОтветить на тему  [ Сообщений: 9 ] 
Торрент файл
Размер: 7.14 GB • Зарегистрирован: 5 лет • Статус: Проверено
Скачан: 90 раз • Желающих скачать: 0 • Поблагодарили: 22 раза
 Раздают: 1  |  0 KB/s  ]   Качают: 0  |  0 KB/s  ] 
Сообщения
 Добавлено: 2011-11-29 10:06
Аватара пользователя
Стаж: 9 лет
Возраст: 9
Сообщений: 225
Спасибок: 236
Лайков: 2
Глухой пролёт / Все из-за Пита Тонга / It's All Gone Pete Tong

Изображение


Год выпуска: 2004
Страна: Канада, Великобритания
Слоган: «The Legend of Frankie Wilde - the Deaf DJ»
Жанр: комедия, драма, музыка
Продолжительность: 01:32:21
Перевод: Профессиональный (многоголосый, закадровый) R5
Бонус: Звуковая дорожка - Авторский одноголосный (Наумов) Ненормативная лексика!!!
Субтитры: Russian, English

Режиссёр: Майкл Даус / Michael Dowse
Сценарист: Майкл Даус / Michael Dowse
Продюсер: Тони Арман-Джонс / Tony Arman-Jones, Роберт Благоевич / Robert Blagojevic, Джэми Макдермотт / Jamie Macdermott, Аллан Нибло / Allan Niblo
Оператор: Балас Болиго / Balazs Bolygo
Композитор: Грэхэм Мэсси / Graham Massey
В ролях: Пол Кэй (Frankie Wilde), Беатриз Батарда (Penelope), Кейт Магован (Sonja), Майк Уилмот (Max Haggar), Нил Мэскелл (Jack Stoddart), Моника Майя (Charlize Bondo), Пит Тонг (играет самого себя), Рон Ллой Хью Эллистон (Marvin Sallis), Дэн Антопольский (Eric Banning), Тим Плестер (Brent Tufford), Пол Спенс (Alfonse), Дэвид Лоуренс (Horst)
Бюджет: $2 000 000
Сборы в США: $120 620

Мировая премьера: 12 сентября 2004
Релиз на DVD: 11 декабря 2008, «Настроение VIDEO»

Саундтрек: Скачать
Описание: Главный герой Фрэнки Уайлд карабкается по карьерной лестнице ди-джея, живет сумасшедшей жизнью со всеми вытекающими последствиями... Вдруг он обнаруживает, что теряет слух! Однако он уже успел привыкнуть к славе и лести и решает бороться до конца, чтобы выяснить, слышит он музыку, которую сам играет или нет...
Изображение 7.802 (3 011)
Изображение 7.3 (9 386)

MPAA: Изображение - Рейтинг NC-17 (Лица, не достигшие 17 лет, на фильм не допускаются)

Качество: BDRip
Формат: Matroska
Видео кодек: x264
Аудио кодек: AC3, DTS
Видео: AVC; 1920x1072 (1.79:1); 8657 Kbps; 23,976 fps; 0,175 bpp
Аудио #1: Russian; AC3; 448 Kbps; 48 KHz; 6 ch - Профессиональный (многоголосый, закадровый) R5
Аудио #2: AC3 | 6 ch | 48 kHz | 448 kbps; Русский (AVO Наумов) Ненормативная лексика!!!
Аудио #3: English; DTS; 1509 Kbps; 48 KHz; 6 ch
Субтитры: Russian, English
Media Info
General
Complete name : E:\BDRip 1080p\Its.All.Gone.Pete.Tong.2004.BDRip.1080p.Rus.Eng.Subs.x264-CiNEFiLE.mkv
Format : Matroska
File size : 6.85 GiB
Duration : 1h 32mn
Overall bit rate : 10.6 Mbps
Encoded date : UTC 2010-07-25 14:23:38
Writing application : mkvmerge v3.4.0 ('Rapunzel') built on May 15 2010 09:38:20
Writing library : libebml v0.8.0 + libmatroska v0.9.0

Video
ID : 1
Format : AVC
Format/Info : Advanced Video Codec
Format profile : High@L4.1
Format settings, CABAC : Yes
Format settings, ReFrames : 4 frames
Muxing mode : Container profile=Unknown@4.1
Codec ID : V_MPEG4/ISO/AVC
Duration : 1h 32mn
Bit rate : 8 657 Kbps
Width : 1 920 pixels
Height : 1 072 pixels
Display aspect ratio : 16:9
Frame rate : 23.976 fps
Color space : YUV
Chroma subsampling : 4:2:0
Bit depth : 8 bits
Scan type : Progressive
Bits/(Pixel*Frame) : 0.175
Stream size : 5.45 GiB (80%)
Title : x264-CiNEFiLE
Writing library : x264 core 104 r1683 62997d6
Encoding settings : cabac=1 / ref=4 / deblock=1:0:0 / analyse=0x3:0x113 / me=umh / subme=7 / psy=1 / psy_rd=1.00:0.00 / mixed_ref=1 / me_range=16 / chroma_me=1 / trellis=1 / 8x8dct=1 / cqm=0 / deadzone=21,11 / fast_pskip=0 / chroma_qp_offset=-2 / threads=12 / sliced_threads=0 / nr=0 / decimate=1 / interlaced=0 / constrained_intra=0 / bframes=3 / b_pyramid=2 / b_adapt=1 / b_bias=0 / direct=1 / weightb=1 / open_gop=0 / weightp=2 / keyint=250 / keyint_min=23 / scenecut=40 / intra_refresh=0 / rc_lookahead=40 / rc=2pass / mbtree=1 / bitrate=8657 / ratetol=1.0 / qcomp=0.60 / qpmin=10 / qpmax=51 / qpstep=4 / cplxblur=20.0 / qblur=0.5 / ip_ratio=1.40 / aq=1:1.00
Language : English

Audio #1
ID : 2
Format : AC-3
Format/Info : Audio Coding 3
Mode extension : CM (complete main)
Codec ID : A_AC3
Duration : 1h 32mn
Bit rate mode : Constant
Bit rate : 448 Kbps
Channel(s) : 6 channels
Channel positions : Front: L C R, Side: L R, LFE
Sampling rate : 48.0 KHz
Stream size : 296 MiB (4%)
Title : AC3; 448 Kbps @ 5.1 ch (MVO) R5
Language : Russian

Audio #2
ID : 3
Format : DTS
Format/Info : Digital Theater Systems
Codec ID : A_DTS
Duration : 1h 32mn
Bit rate mode : Constant
Bit rate : 1 510 Kbps
Channel(s) : 6 channels
Channel positions : Front: L C R, Side: L R, LFE
Sampling rate : 48.0 KHz
Bit depth : 24 bits
Stream size : 997 MiB (14%)
Title : DTS; 1509 Kbps @ 5.1 ch
Language : English

Text #1
ID : 4
Format : UTF-8
Codec ID : S_TEXT/UTF8
Codec ID/Info : UTF-8 Plain Text
Title : (Full) R5
Language : Russian

Text #2
ID : 5
Format : UTF-8
Codec ID : S_TEXT/UTF8
Codec ID/Info : UTF-8 Plain Text
Title : (Full_SDH)
Language : English
Свернуть
Скриншоты
Изображение
Изображение
Изображение
Изображение
Изображение
Изображение
Изображение
Изображение
Изображение
Изображение
Изображение
Свернуть
 StepanPochatok нравится это.
Не в сети
Профиль  
 Добавлено: 2011-11-29 10:34 (спустя 28 минут)
Аватара пользователя
Стаж: 6 лет
Возраст: 34
Сообщений: 21
Респект тебе! :co_ol:
Не в сети
Профиль  
 Добавлено: 2011-11-30 03:06 (спустя 16 часов)
Стаж: 6 лет 3 месяца
Сообщений: 493
Лайков: 28
фильм-мечта прямо! Так и мечтаю, чтобы все эти бум-тынц-мудаки оглохли уже от своей гумузыки... :-D

Добавлено спустя 3 минуты:
Вот только подозреваю, что разницы будет не ощутить. Ибо и так - такую "музыку" может только глухой написать. (прости, Бетховен)
Не в сети
Профиль  
 Добавлено: 2012-02-03 11:36 (спустя 2 месяца 3 дня)
Аватара пользователя
Стаж: 8 лет
Сообщений: 55
Спасибок: 72
раздайте! скорости нету!
Не в сети
Профиль  
 Добавлено: 2012-09-25 20:12 (спустя 7 месяцев)
Стаж: 7 лет
Сообщений: 1
:ni_zia:
Не в сети
Профиль  
 Добавлено: 2012-10-03 13:20 (спустя 7 дней)
Аватара пользователя
Стаж: 8 лет
Сообщений: 32
:ig_ro_ki: киношко супер, тока древнинькое)а так для тех кто в теме)))
Не в сети
Профиль  
 Добавлено: 2014-05-28 22:52 (спустя 1 год 7 месяцев)
Стаж: 2 года 8 месяцев
Сообщений: 8
раздайте кто-нибудь...пожалуйста прошу!
Не в сети
Профиль  
 Добавлено: 2014-05-28 23:42 (спустя 49 минут)
Аватара пользователя
Стаж: 8 лет 11 месяцев
Сообщений: 138
Спасибок: 95
Лайков: 3
один из моих любимых фильмов
Не в сети
Профиль  
 Добавлено: 2014-05-29 18:28 (спустя 18 часов)
Модератор
Аватара пользователя
Стаж: 8 лет 11 месяцев
Возраст: 34
Сообщений: 2193
Спасибок: 6835
Лайков: 31
kea^___^
Женёк, давай в други уже в вк, заявку год уже назад отправил)
_________________
Не в сети
Профиль  
Начать новую темуОтветить на тему  [ Сообщений: 9 ] 
Вы не можете начинать темы
Вы не можете отвечать на сообщения
Вы не можете редактировать свои сообщения
Вы не можете удалять свои сообщения