Правила форума

  • В этом разделе создание новых тем Запрещено.
  • Для создания новых тем пользуйтесь Корневым разделом DVD и HD фильмы.
Начать новую темуОтветить на тему  [ 1 сообщение ] 
Торрент файл
Размер: 15.94 GB • Зарегистрирован: 5 лет 9 месяцев • Статус: Проверено
Скачан: 33 раза • Желающих скачать: 0 • Поблагодарили: 9 раз
 Раздают: 0  |  0 KB/s  ]   Качают: 0  |  0 KB/s  ] 
 Полного источника не было 2 года 1 месяц 
Сообщения
 Добавлено: 2011-03-08 11:45
Модератор релиз-группы
Аватара пользователя
Стаж: 9 лет 1 месяц
Возраст: 97
Сообщений: 11660
Спасибок: 6534
Лайков: 269
Гнев / Man on Fire

Изображение


Год выпуска: 2004
Страна: США - Великобритания
Жанр: боевик, триллер, драма, приключения, криминал
Продолжительность: 02:26:09
Перевод: Профессиональный (дубляж)
Дублеры: Петр Семак,Елизавета Захарьева,Геннадий Смирнов,Елена Шульман,Вадим Яковлев
Дмитрий "Гоблин" Пучков (одноголосый, закадровый)
Оригинальная звуковая дорожка
Субтитры: Русские

Режиссёр: Тони Скотт
В ролях: Дензел Вашингтон, Дакота Фаннинг, Марк Энтони, Рада Митчел, Кристофер Уокен, Джанкарло Джаннини, Рэйчел Тикотин, Иисус Очоа, Микки Рурк, Анджелина Пелаез, Густаво Санчез Парра, Джеро Камило, Роза Мария Хернандез, Марио Сарагоса, Хавьер Торрес Сарагоса, Чарльз Паравенти, Кармен Салинас
Описание: Состоятельные жители Мехико в панике: всего за шесть дней в городе пропали 24 человека. Особенно обеспокоены волной похищений родители, и многие из них в страхе нанимают для своих отпрысков телохранителей.
В это непростое время в городе оказывается бывший агент ЦРУ Джон Кризи. Друг Кризи, Рэйберн подыскал здесь для него место телохранителя девятилетней дочери промышленника Сэмюэля Рамоса, Питы Рамос.
Поначалу Кризи с трудом терпит соседство не по годам развитой девочки. Но постепенно Пите удается пробить внешнюю неприступность своего охранника, и они становятся друзьями.
Кризи вновь почувствовал вкус к жизни, но все рушится, когда Питу похищают. Кризи повержен и уничтожен, но гнев против преступников пересиливает. Кризи клянется убить любого, кто втянут в похищение Питы или получает от него выгоду. И никто его не остановит
Изображение 8.043 (15 169)

Изображение
Качество: BDRip, 1080p
Формат: MKV
Видео кодек: H264 (AVC)
Аудио кодек: AC3 (Dolby Digital)
Видео: 1920x804, x264, 23.976 fps, ~12214 kbps
Аудио #1: Русский AC3, 6ch 384 kbps [Профессиональный (дубляж)]
Аудио #2: Русский DTS 5.1, 1536 kbps [Дмитрий "Гоблин" Пучков (одноголосый, закадровый)]
Аудио #3: DTS 5.1, 1536 kbps [Оригинальная звуковая дорожка]
Субтитры: Русские
Скриншоты
Изображение

Изображение

Изображение

Изображение

Изображение
Свернуть

Mi
Format : Matroska
File size : 15.9 GiB
Duration : 2h 26mn
Overall bit rate : 15.6 Mbps
Encoded date : UTC 2011-03-08 08:18:40
Writing application : mkvmerge v4.5.0 ('Speed of Light') сборка от Feb 1 2011 02:10:32
Writing library : libebml v1.2.0 + libmatroska v1.1.0

Video
ID : 1
Format : AVC
Format/Info : Advanced Video Codec
Format profile : High@L4.1
Format settings, CABAC : Yes
Format settings, ReFrames : 5 frames
Muxing mode : Header stripping
Codec ID : V_MPEG4/ISO/AVC
Duration : 2h 26mn
Bit rate : 12.2 Mbps
Width : 1 920 pixels
Height : 804 pixels
Display aspect ratio : 2.35:1
Frame rate : 23.976 fps
Color space : YUV
Chroma subsampling : 4:2:0
Bit depth : 8 bits
Scan type : Progressive
Bits/(Pixel*Frame) : 0.330
Stream size : 12.1 GiB (76%)
Title : Гнев/ Man of Fire
Writing library : x264 core 58 r798M 17e5dac
Encoding settings : cabac=1 / ref=5 / deblock=1:-3:-3 / analyse=0x3:0x133 / me=umh / subme=6 / me-prepass=0 / brdo=1 / mixed_ref=1 / me_range=24 / chroma_me=1 / trellis=0 / 8x8dct=1 / cqm=2 / deadzone=6,4 / chroma_qp_offset=0 / threads=3 / nr=0 / decimate=1 / mbaff=0 / bframes=3 / b_pyramid=1 / b_adapt=1 / b_bias=0 / direct=3 / wpredb=1 / bime=1 / keyint=250 / keyint_min=25 / scenecut=40(pre) / rc=2pass / bitrate=12214 / ratetol=1.0 / rceq='blurCplx^(1-qComp)' / qcomp=0.60 / qpmin=10 / qpmax=51 / qpstep=4 / cplxblur=20.0 / qblur=0.5 / ip_ratio=1.40 / pb_ratio=1.30 / aq=1:0.6:12.0
Language : English

Audio #1
ID : 2
Format : AC-3
Format/Info : Audio Coding 3
Mode extension : CM (complete main)
Muxing mode : Header stripping
Codec ID : A_AC3
Duration : 2h 26mn
Bit rate mode : Constant
Bit rate : 384 Kbps
Channel(s) : 6 channels
Channel positions : Front: L C R, Side: L R, LFE
Sampling rate : 48.0 KHz
Bit depth : 16 bits
Compression mode : Lossy
Stream size : 401 MiB (2%)
Title : Дубляж
Language : Russian

Audio #2
ID : 3
Format : DTS
Format/Info : Digital Theater Systems
Muxing mode : Header stripping
Codec ID : A_DTS
Duration : 2h 26mn
Bit rate mode : Constant
Bit rate : 1 510 Kbps
Channel(s) : 6 channels
Channel positions : Front: L C R, Side: L R, LFE
Sampling rate : 48.0 KHz
Bit depth : 24 bits
Compression mode : Lossy
Stream size : 1.54 GiB (10%)
Title : Гоблин
Language : Russian

Audio #3
ID : 4
Format : DTS
Format/Info : Digital Theater Systems
Muxing mode : Header stripping
Codec ID : A_DTS
Duration : 2h 26mn
Bit rate mode : Constant
Bit rate : 1 510 Kbps
Channel(s) : 6 channels
Channel positions : Front: L C R, Side: L R, LFE
Sampling rate : 48.0 KHz
Bit depth : 24 bits
Compression mode : Lossy
Stream size : 1.54 GiB (10%)
Language : English

Text
ID : 5
Format : UTF-8
Codec ID : S_TEXT/UTF8
Codec ID/Info : UTF-8 Plain Text
Language : Russian

Свернуть
Не в сети
Профиль  
Начать новую темуОтветить на тему  [ 1 сообщение ] 
Вы не можете начинать темы
Вы не можете отвечать на сообщения
Вы не можете редактировать свои сообщения
Вы не можете удалять свои сообщения