Правила форума

  • В этом разделе создание новых тем Запрещено.
  • Для создания новых тем пользуйтесь Корневым разделом DVD и HD фильмы.
Начать новую темуОтветить на тему  [ Сообщений: 5 ] 
Торрент файл
Размер: 6.09 GB • Зарегистрирован: 5 лет 10 месяцев • Статус: Проверено
Скачан: 142 раза • Желающих скачать: 0 • Поблагодарили: 22 раза
 Раздают: 0  |  0 KB/s  ]   Качают: 0  |  0 KB/s  ] 
 Полного источника не было 1 год 5 месяцев 
Сообщения
 Добавлено: 2011-01-26 04:59
Аватара пользователя
Стаж: 6 лет
Возраст: 26
Сообщений: 113
Спасибок: 691
Голая правда / The Ugly Truth
«Мужские ценности против Женских идеалов»

Изображение


Год выпуска: 2009
Страна: США
Жанр: Комедия, Мелодрама
Продолжительность: 01:35:57
Перевод: Дублированное
Режиссёр: Роберт Лукетич
Сценарист: Николь Истмэн, Карен МакКалла Луц, Керстен Смит
Продюсер: Кимберли Ди Бонавентура, Том Розенберг, Керстен Смит
Оператор: Рассел Карпентер
Композитор: Аарон Зигман
В ролях: Кэтрин Хейгл, Жерар Батлер, Бри Тернер, Эрик Винтер, Ник Сирси, Jesse D. Goins, Шерил Хайнс, Джон Майкл Хиггинс, Ной Мэтьюз, Бонни Соммервиль, Джон Сломан, Ивет Николь Браун, Натан Кордри, Аллен Мальдонадо, Стив Литтл, Дэн Каллахан, Тесс Паркер, Ариэль Ванденберг, Кевин Коннолли, Рокко Деспирито, Валенте Родригез
Описание: Она — успешный телепродюсер со строгими моральными принципами и сексуальная блондинка. Он восходящая звезда нового телешоу и его жизненное кредо — «секс, наркотики и рок-н-ролл», он совсем не признает равенство полов, политкорректность и так далее… В общем настоящий мачо. Вы думаете, у них может что-то получится?
Изображение 7.542 (29,381 votes)
Изображение 6.4/10 (31,410 votes)
Релиз Группы: Изображение

Раздача Группы: Изображение

Доп.Информация
Бюджет: $38 000 000
Сборы в США: $88 915 214
Сборы в мире: $205 298 907
Сборы в России: $6 509 661
Премьера (мир): 16 июля 2009
Премьера (РФ): 17 сентября 2009, «BVSPR Sony»
Релиз на DVD: 23 декабря 2010, «Columbia/Sony»
Релиз на Blu-Ray: 10 декабря 2009, «Columbia/Sony»
Свернуть


Рейтинг MPAA - Детям до 17 лет обязательно присутствие родителей

Качество: BDRip, 720p
Формат: MKV
Видео: 6103 kb/s, 1280x534
Аудио #1: Russian / Ukrainian: AC3, 640 kb/s (6 ch)
Аудио #2: English: DTS, 1536 kb/s (6 ch)
Аудио #3: English: AC3, 192 kb/s (2 ch) [Commentary]
Субтитры: Ukrainian [Forced], English
Размер: 6.09 GB

Изображение

Mediainfo
Общее
Уникальный идентификатор : 194192712327268902302956168958589460541 (0x921827ED574C2DD79651A96AD5B2E03D)
Полное имя : E:\Загрузки с Utorrent\The.Ugly.Truth.2009.720p.BluRay.Rus.Ukr.Eng.mkv
Формат : Matroska
Размер файла : 6,09 Гбайт
Продолжительность : 1 ч. 35 м.
Общий поток : 9087 Кбит/сек
Название фильма : The Ugly Truth (2009)
Дата кодирования : UTC 2009-11-24 12:40:03
Программа кодирования : mkvmerge v2.9.8 ('C'est le bon') built on Aug 13 2009 12:49:06
Библиотека кодирования : libebml v0.7.7 + libmatroska v0.8.1

Видео
Идентификатор : 1
Формат : AVC
Формат/Информация : Advanced Video Codec
Профиль формата : High@L4.1
Параметр CABAC формата : Да
Параметр ReFrames формата : 8 кадры
Идентификатор кодека : V_MPEG4/ISO/AVC
Продолжительность : 1 ч. 35 м.
Битрейт : 6103 Кбит/сек
Ширина : 1280 пикс.
Высота : 534 пикс.
Соотношение сторон : 2,35:1
Частота кадров : 23,976 кадр/сек
Цветовое пространство : YUV
Подвыборка цветности : 4:2:0
Битовая глубина : 8 бит
Тип развёртки : Прогрессивная
Бит/(Пиксели*Кадры) : 0.372
Размер потока : 3,97 Гбайт (65%)
Заголовок : Release for HDClub
Библиотека кодирования : x264 core 79 r1339M 82b80ef
Настройки программы : cabac=1 / ref=8 / deblock=1:-3:-3 / analyse=0x3:0x113 / me=umh / subme=9 / psy=1 / psy_rd=1.2:0.1 / mixed_ref=1 / me_range=48 / chroma_me=1 / trellis=2 / 8x8dct=1 / cqm=0 / deadzone=21,11 / chroma_qp_offset=-3 / threads=6 / nr=0 / decimate=0 / mbaff=0 / constrained_intra=0 / bframes=6 / b_pyramid=2 / b_adapt=2 / b_bias=0 / direct=3 / wpredb=1 / wpredp=2 / keyint=250 / keyint_min=25 / scenecut=40 / rc=2pass / mbtree=0 / bitrate=6103 / ratetol=1.0 / qcomp=0.60 / qpmin=10 / qpmax=51 / qpstep=4 / cplxblur=20.0 / qblur=0.5 / ip_ratio=1.40 / pb_ratio=1.30 / aq=1:0.70
Язык : English

Аудио #1
Идентификатор : 2
Формат : AC-3
Формат/Информация : Audio Coding 3
Расширение режима : CM (complete main)
Идентификатор кодека : A_AC3
Продолжительность : 1 ч. 35 м.
Вид битрейта : Постоянный
Битрейт : 640 Кбит/сек
Канал(ы) : 6 канала(ов)
Расположение каналов : Front: L C R, Side: L R, LFE
Частота : 48,0 КГц
Битовая глубина : 16 бит
Метод сжатия : С потерями
Размер потока : 439 Мбайт (7%)
Заголовок : AC3 5.1 640 Kbps Дубляж Blu-ray CEE
Язык : Russian

Аудио #2
Идентификатор : 3
Формат : AC-3
Формат/Информация : Audio Coding 3
Расширение режима : CM (complete main)
Идентификатор кодека : A_AC3
Продолжительность : 1 ч. 35 м.
Вид битрейта : Постоянный
Битрейт : 640 Кбит/сек
Канал(ы) : 6 канала(ов)
Расположение каналов : Front: L C R, Side: L R, LFE
Частота : 48,0 КГц
Битовая глубина : 16 бит
Метод сжатия : С потерями
Размер потока : 439 Мбайт (7%)
Заголовок : AC3 5.1 640 Kbps Дубляж Blu-ray CEE
Язык : Ukrainian

Аудио #3
Идентификатор : 4
Формат : AC-3
Формат/Информация : Audio Coding 3
Профиль формата : Dolby Digital
Расширение режима : CM (complete main)
Идентификатор кодека : A_AC3
Продолжительность : 1 ч. 35 м.
Вид битрейта : Постоянный
Битрейт : 192 Кбит/сек
Канал(ы) : 2 канала(ов)
Расположение каналов : Front: L R
Частота : 48,0 КГц
Битовая глубина : 16 бит
Метод сжатия : С потерями
Размер потока : 132 Мбайт (2%)
Заголовок : AC3 2.0 192 Kbps Commentary with Director Robert Luketic and Producer Gary Lucchesi
Язык : English

Аудио #4
Идентификатор : 5
Формат : DTS
Формат/Информация : Digital Theater Systems
Идентификатор кодека : A_DTS
Продолжительность : 1 ч. 35 м.
Вид битрейта : Постоянный
Битрейт : 1510 Кбит/сек
Канал(ы) : 6 канала(ов)
Расположение каналов : Front: L C R, Side: L R, LFE
Частота : 48,0 КГц
Битовая глубина : 24 бит
Метод сжатия : С потерями
Размер потока : 1,01 Гбайт (17%)
Заголовок : DTS 5.1 1536 Kbps
Язык : English

Текст #1
Идентификатор : 6
Формат : UTF-8
Идентификатор кодека : S_TEXT/UTF8
Идентификатор кодека/Информация : UTF-8 Plain Text
Заголовок : Forced
Язык : Ukrainian

Текст #2
Идентификатор : 7
Формат : UTF-8
Идентификатор кодека : S_TEXT/UTF8
Идентификатор кодека/Информация : UTF-8 Plain Text
Язык : English

Меню #1
00:00:00.000 : en:00:00:00.000
00:05:00.000 : en:00:05:00.000
00:10:00.000 : en:00:10:00.000
00:15:00.000 : en:00:15:00.000
00:20:00.000 : en:00:20:00.000
00:25:00.000 : en:00:25:00.000
00:30:00.000 : en:00:30:00.000
00:35:00.000 : en:00:35:00.000
00:40:00.000 : en:00:40:00.000
00:45:00.000 : en:00:45:00.000
00:50:00.000 : en:00:50:00.000
00:55:00.000 : en:00:55:00.000
01:00:00.000 : en:01:00:00.000
01:05:00.000 : en:01:05:00.000
01:10:00.000 : en:01:10:00.000
01:15:00.000 : en:01:15:00.000
01:20:00.000 : en:01:20:00.000
01:25:00.000 : en:01:25:00.000
01:30:00.000 : en:01:30:00.000
01:35:00.000 : en:01:35:00.000

Меню #2
00:00:00.054 : en:00:00:00.054
Свернуть

Скриншоты
Изображение

Изображение

Изображение
Свернуть


Изображение
Не в сети
Профиль  
 Добавлено: 2011-02-04 06:35 (спустя 9 дней)
Аватара пользователя
Стаж: 7 лет 6 месяцев
Сообщений: 35
Спасибок: 291
Раздайте, пжлста!
Не в сети
Профиль  
 Добавлено: 2011-02-04 08:56 (спустя 2 часа 21 минута)
Аватара пользователя
Стаж: 6 лет
Возраст: 26
Сообщений: 113
Спасибок: 691
сейчас раздам :)
Не в сети
Профиль  
 Добавлено: 2011-07-31 14:15 (спустя 5 месяцев 27 дней)
Аватара пользователя
Стаж: 5 лет 10 месяцев
Сообщений: 171
Раздай!!!!!!!!
Не в сети
Профиль  
 Добавлено: 2011-08-06 15:59 (спустя 6 дней)
Стаж: 7 лет 6 месяцев
Сообщений: 4
Фильм СУПЕР!!!!! Время потрачено не зря! Отличный юмор!
Не в сети
Профиль  
Начать новую темуОтветить на тему  [ Сообщений: 5 ] 
Вы не можете начинать темы
Вы не можете отвечать на сообщения
Вы не можете редактировать свои сообщения
Вы не можете удалять свои сообщения