Правила форума

  • В этом разделе создание новых тем Запрещено.
  • Для создания новых тем пользуйтесь Корневым разделом DVD и HD фильмы.
Начать новую темуОтветить на тему  [ Сообщений: 7 ] 
Торрент файл
Размер: 8.85 GB • Зарегистрирован: 2 года 5 месяцев • Статус: Проверено
Скачан: 147 раз • Желающих скачать: 0 • Поблагодарили: 37 раз
 Раздают: 2  |  64 KB/s  ]   Качают: 0  |  0 KB/s  ] 
Сообщения
 Добавлено: 2014-06-25 02:58
DVD Release Group
Аватара пользователя
Стаж: 7 лет 1 месяц
Сообщений: 3548
Спасибок: 247034
Лайков: 1018
Голгофа

Calvary


Изображение


Год выпуска: 2014
Страна: Ирландия, Великобритания
Жанр: Драма, комедия
Продолжительность: 01:41:30
Перевод: Профессиональный (многоголосый, закадровый)
Режиссер: Джон Майкл МакДона
В ролях: Брендан Глисон, Крис О’Дауд, Келли Райлли, Эйден Гиллен, Дилан Моран, Исаак Де Банколе, М. Эммет Уолш, Мари-Жозе Кроз, Донал Глисон, Дэвид Уилмот
Описание: Давно не было такой недельки у отца Джеймса: исповедь, начинающая со слов «я собираюсь вас убить», поджог церкви и драка в пабе. Быть священником и направлять свою паству непросто. Без чувства юмора, иронии и прощения не обойтись.
Изображение
Качество: BDRip 1080p
Формат: MKV
Видео кодек: H.264
Аудио кодек: DTS
Видео: 1920x816 24fps 9217kbps
Аудио:
Audio Rus: 48kHz 6ch 1510kbps
Audio Eng: 48kHz 6ch 1510kbps
"MediaInfo"
Формат : Matroska
Версия формата : Version 2
Размер файла : 8,85 Гбайт
Продолжительность : 1 ч. 41 м.
Общий поток : 12,5 Мбит/сек
Дата кодирования : UTC 2014-06-24 19:07:12
Программа кодирования : mkvmerge v7.0.0 ('Where We Going') 64bit built on Jun 9 2014 15:16:27
Библиотека кодирования : libebml v1.3.0 + libmatroska v1.4.1

Видео
Идентификатор : 1
Формат : AVC
Формат/Информация : Advanced Video Codec
Профиль формата : High@L4.1
Параметр CABAC формата : Да
Параметр ReFrames формата : 4 кадра
Идентификатор кодека : V_MPEG4/ISO/AVC
Продолжительность : 1 ч. 41 м.
Битрейт : 9217 Кбит/сек
Ширина : 1920 пикселей
Высота : 816 пикселей
Соотношение сторон : 2,35:1
Режим частоты кадров : Постоянный
Частота кадров : 24,000 кадра/сек
Цветовое пространство : YUV
Субдискретизация насыщенности : 4:2:0
Битовая глубина : 8 бит
Тип развёртки : Прогрессивная
Бит/(Пиксели*Кадры) : 0.245
Размер потока : 6,53 Гбайт (74%)
Библиотека кодирования : x264 core 142 r2431+42 c69a006 tMod [8-bit@all X86_64]
Настройки программы : cabac=1 / ref=2 / deblock=1:0:0 / analyse=0x3:0x133 / me=hex / subme=2 / psy=1 / fade_compensate=0.00 / psy_rd=1.00:0.00 / mixed_ref=1 / me_range=16 / chroma_me=1 / trellis=2 / 8x8dct=1 / cqm=0 / deadzone=21,11 / fast_pskip=0 / chroma_qp_offset=0 / threads=12 / lookahead_threads=6 / sliced_threads=0 / nr=0 / decimate=1 / interlaced=0 / bluray_compat=0 / constrained_intra=0 / fgo=0 / bframes=2 / b_pyramid=2 / b_adapt=2 / b_bias=0 / direct=1 / weightb=1 / open_gop=0 / weightp=2 / keyint=240 / keyint_min=24 / scenecut=40 / intra_refresh=0 / rc=crf / mbtree=0 / crf=18.5000 / qcomp=0.60 / qpmin=0:0:0 / qpmax=69:69:69 / qpstep=4 / ip_ratio=1.40 / pb_ratio=1.30 / aq=1:1.00 / aq-sensitivity=10.00 / aq-factor=1.00:1.00:1.00 / aq2=0 / aq3=0
Язык : English
Default : Да
Forced : Нет

Аудио #1
Идентификатор : 2
Формат : DTS
Формат/Информация : Digital Theater Systems
Режим : 16
Параметр Endianness формата : Big
Идентификатор кодека : A_DTS
Продолжительность : 1 ч. 41 м.
Вид битрейта : Постоянный
Битрейт : 1509 Кбит/сек
Каналы : 6 каналов
Расположение каналов : Front: L C R, Side: L R, LFE
Частота : 48,0 КГц
Битовая глубина : 16 бит
Метод сжатия : С потерями
Размер потока : 1,07 Гбайт (12%)
Язык : Russian
Default : Да
Forced : Нет

Аудио #2
Идентификатор : 3
Формат : DTS
Формат/Информация : Digital Theater Systems
Режим : 16
Параметр Endianness формата : Big
Идентификатор кодека : A_DTS
Продолжительность : 1 ч. 41 м.
Вид битрейта : Постоянный
Битрейт : 1509 Кбит/сек
Каналы : 6 каналов
Расположение каналов : Front: L C R, Side: L R, LFE
Частота : 48,0 КГц
Битовая глубина : 16 бит
Метод сжатия : С потерями
Размер потока : 1,07 Гбайт (12%)
Язык : English
Default : Нет
Forced : Нет
Свернуть

"Скриншоты"
Изображение
Изображение
Изображение
Свернуть
В сети
Профиль  
 Добавлено: 2014-06-25 20:17 (спустя 17 часов)
Стаж: 8 лет 1 месяц
Сообщений: 22
Спасибок: 35
По описанию фильм странноватый. Посмотрим...
Не в сети
Профиль  
 Добавлено: 2014-06-28 04:02 (спустя 2 дня 7 часов)
Стаж: 6 лет 9 месяцев
Сообщений: 1
Не понятно почему комедия..
Честно говоря, грустно после просмотра стало. Люди, будьте людьми.
Не в сети
Профиль  
 Добавлено: 2014-06-29 01:30 (спустя 21 час)
Аватара пользователя
Стаж: 8 лет 7 месяцев
Сообщений: 2901
Спасибок: 4796
Лайков: 12

rastor:

Жанр: Драма, комедия
я вообще ни разу не понял, в каком тут месте комедия.
смысла у фильма ноль. положительных эмоций от просмотра - ноль.
_________________
Изображение Изображение
Не в сети
Профиль  
 Добавлено: 2014-07-01 23:23 (спустя 2 дня 21 час)
Аватара пользователя
Стаж: 9 лет 1 месяц
Сообщений: 2152
Спасибок: 778
Лайков: 14
Шокирующее начало и ожидаемый конец. Не уловил морали, да и, вообще, была ли она?
Что касается спора на счет комедийного жанра, то он присутствует, так как шутки проскальзывают почти в каждом диалоге. Но эти шутки, как бы, завуалированы, т.е. они подаются в виде обычной спокойной речи – я не знаю как объяснить это по-другому ;)
_________________
PSN
Изображение
Свернуть
Изображение
Не в сети
Профиль  
 Добавлено: 2014-07-06 22:52 (спустя 4 дня)
Аватара пользователя
Стаж: 8 лет 11 месяцев
Сообщений: 515
Спасибок: 39
Лайков: 49
Фильм полный бред, пустой трёп ни о чём, актёры играют вообще не напрягаясь, включая главного, так бессмысленные якобы философские речи, весь фильм пронизан темой педофилии, гомосексуализма и извращенцев, а конец меня просто убил, режиссёра за яйца повесить мало, рейтинг 7,99 высосан из пальца, и сто пудов сделан искусственно заинтересованными в этом людьми, я смотрел фильмы с рейтингом 4 с копейками в разы интереснее этого "ГЭ", я бы ему 2 дал, от силы троечку с жирным минусом. Единственное что мне понравилось, так это красивые, умиротворённые, ирландские пейзажи и море, то единственное чем себя успокаиваешь понимая что потратил за зря полтора часа своей жизни смотря эту басню о минете в туалете.
Вывод, посмотреть 1 раз можно, но только чтобы запомнить убогово режиссёра и ленивых актёров, включая главного, чтобы потом проходить стороной едва заслышите их имена, но вот покупать это точно не стоит.
Не в сети
Профиль  
 Добавлено: 2014-07-07 02:29 (спустя 3 часа)
Аватара пользователя
Стаж: 8 лет 3 месяца
Сообщений: 31
Лайков: 1

Микки:

Вывод, посмотреть 1 раз можно, но только чтобы запомнить убогово режиссёра и ленивых актёров, включая главного, чтобы потом проходить стороной едва заслышите их имена, но вот покупать это точно не стоит.

Некоторые актеры из этого фильма, включая главного, в 2011 году заснялись в прекрасном фильме The Guard ("Однажды в Ирландии") где отожгли по полной. Режиссер в этом фильме все тот же Джон Майкл МакДонах. Однажды в Ирландии - лучшее кино из тех что я видел за последние 5 лет. Так что обходить этих актеров и режиссера вниманием из-за одной неудачи (сам я Голгофу не смотрел еще, но вот как раз сейчас качаю) не буду и другим не советую. Ребята безусловно талантливые.
Не в сети
Профиль  
Начать новую темуОтветить на тему  [ Сообщений: 7 ] 
Вы не можете начинать темы
Вы не можете отвечать на сообщения
Вы не можете редактировать свои сообщения
Вы не можете удалять свои сообщения