Правила форума

  • В этом разделе создание новых тем Запрещено.
  • Для создания новых тем пользуйтесь Корневым разделом DVD и HD фильмы.
Начать новую темуОтветить на тему  [ Сообщений: 9 ] 
Торрент файл
Размер: 23.86 GB • Зарегистрирован: 5 лет 9 месяцев • Статус: Проверено
Скачан: 51 раз • Желающих скачать: 0 • Поблагодарили: 28 раз
 Раздают: 0  |  0 KB/s  ]   Качают: 0  |  0 KB/s  ] 
 Полного источника не было 12 часов 
Сообщения
 Добавлено: 2011-03-07 11:39
Модератор релиз-группы
Аватара пользователя
Стаж: 9 лет 1 месяц
Возраст: 97
Сообщений: 11659
Спасибок: 6532
Лайков: 269
Голый пистолет :Трилогия / The Naked Gun :Trilogy

Изображение


Голый пистолет: из архивов полиции!
Изображение


Год выпуска: 1988
Страна: США
Жанр: комедия
Продолжительность: 1:21:29
Перевод: Профессиональный (многоголосый закадровый)
Авторский одноголосый (Петр Гланц)
Авторский одноголосый (Алексей Михалёв)
Профессиональный(закадровый, версия НТВ+)
Оригинальная звуковая дорожка

Режиссёр: Дэвид Цукер / David Zucker
В ролях: Лесли Нильсен, Рикардо Монтальбан, О.Джей Симпсон, Сьюзан Бьюбиан, Джордж Кеннеди, Присцилла Пресли
Описание: Самый некомпетентный полицейский, лейтенант Френк Дреббин, должен в одиночку противостоять международному заговору, цель которого — погубить английскую королеву.
Невероятно смешная комедия с неожиданными поворотами сюжета, остроумными диалогами и конечно же, погонями, драками и прочими непременными атрибутами жанра.
Изображение

Качество: HDTVRip, 1080i
Формат: MKV
Видео кодек: H264 (AVC)
Аудио кодек: AC3 (Dolby Digital)
Видео: 1920х1080i, 25 fps, MPEG-4 AVC ~ 12754 Kbps
Аудио #1: Russian / Dolby Digital Audio / 5.1 / 48 kHz / 384 kbps [профессиональный закадровый, версия Петра Гланца]
Аудио #2: Russian / Dolby Digital Audio / 5.1 / 48 kHz / 448 kbps [Профессиональный (многоголосый закадровый)]
Аудио #3: Russian / Dolby Digital Audio / 5.1 / 48 kHz / 448 kbps [Авторский одноголосый (Алексей Михалёв)]

Скриншоты
Изображение

Изображение

Изображение

Изображение
Свернуть

Mi
Format : Matroska
File size : 7.96 GiB
Duration : 1h 21mn
Overall bit rate : 14.0 Mbps
Encoded date : UTC 2011-03-07 07:42:25
Writing application : mkvmerge v4.5.0 ('Speed of Light') сборка от Feb 1 2011 02:10:32
Writing library : libebml v1.2.0 + libmatroska v1.1.0

Video
ID : 1
Format : AVC
Format/Info : Advanced Video Codec
Format profile : Main@L4.0
Format settings, CABAC : Yes
Format settings, ReFrames : 4 frames
Muxing mode : Header stripping
Codec ID : V_MPEG4/ISO/AVC
Duration : 1h 21mn
Bit rate mode : Variable
Bit rate : 12.4 Mbps
Maximum bit rate : 40.0 Mbps
Width : 1 920 pixels
Height : 1 080 pixels
Display aspect ratio : 16:9
Frame rate : 50.000 fps
Original frame rate : 25.000 fps
Color space : YUV
Chroma subsampling : 4:2:0
Bit depth : 8 bits
Scan type : Interlaced
Scan order : Top Field First
Bits/(Pixel*Frame) : 0.119
Stream size : 7.04 GiB (88%)
Language : English
Color primaries : BT.709-5, BT.1361, IEC 61966-2-4, SMPTE RP177
Transfer characteristics : BT.709-5, BT.1361
Matrix coefficients : BT.709-5, BT.1361, IEC 61966-2-4 709, SMPTE RP177

Audio #1
ID : 2
Format : AC-3
Format/Info : Audio Coding 3
Mode extension : CM (complete main)
Muxing mode : Header stripping
Codec ID : A_AC3
Duration : 1h 21mn
Bit rate mode : Constant
Bit rate : 448 Kbps
Channel(s) : 6 channels
Channel positions : Front: L C R, Side: L R, LFE
Sampling rate : 48.0 KHz
Bit depth : 16 bits
Compression mode : Lossy
Stream size : 261 MiB (3%)
Title : Многоголосый(Пётр Гланц)
Language : Russian

Audio #2
ID : 3
Format : AC-3
Format/Info : Audio Coding 3
Mode extension : CM (complete main)
Muxing mode : Header stripping
Codec ID : A_AC3
Duration : 1h 21mn
Bit rate mode : Constant
Bit rate : 448 Kbps
Channel(s) : 6 channels
Channel positions : Front: L C R, Side: L R, LFE
Sampling rate : 48.0 KHz
Bit depth : 16 bits
Compression mode : Lossy
Stream size : 261 MiB (3%)
Title : Многоголосый
Language : Russian

Audio #3
ID : 4
Format : AC-3
Format/Info : Audio Coding 3
Mode extension : CM (complete main)
Muxing mode : Header stripping
Codec ID : A_AC3
Duration : 1h 21mn
Bit rate mode : Constant
Bit rate : 448 Kbps
Channel(s) : 6 channels
Channel positions : Front: L C R, Side: L R, LFE
Sampling rate : 48.0 KHz
Bit depth : 16 bits
Compression mode : Lossy
Stream size : 261 MiB (3%)
Title : Алексей Михалёв
Language : Russian

Свернуть
Свернуть



Голый пистолет 2 1/2: Запах страха
Изображение


Год выпуска: 1991
Страна: США
Жанр: Комедия
Продолжительность: 01:21:33
Перевод: Профессиональный многоголосый закадровый, версия НТВ+
Авторский одноголосый (Алексей Михалёв)

Режиссёр: Девид Цукер / David Zucke
В ролях: Лесли Нильсен, Рикардо Монтальбан, О.Джей Симпсон, Сьюзан Бьюбиан, Джордж Кеннеди, Присцилла Пресли
Описание: Как мы помним по первому "Голому пистолету", лейтенант Фрэнк Дребин обожает загадки. Почему мы все здесь живем? Есть ли жизнь после секса? Да, его не на шутку беспокоят глобальные проблемы, и самой большой из них является задача остановить злодея, замышляющего уничтожить весь мир.



Качество: HDTVRip, 1080i
Формат: MKV
Видео кодек: H264 (AVC)
Аудио кодек: AC3 (Dolby Digital)
Видео: MPEG-4 AVC Video, 14738 kbps, 1080i, 50 fps
Аудио #1: Russian / Dolby Digital Audio / 2.0 / 48 kHz / 384 kbps [Профессиональный многоголосый закадровый, версия НТВ+]
Аудио #2: Russian / Dolby Digital Audio / 5.1 / 48 kHz / 448 kbps [Авторский одноголосый (Алексей Михалёв)]
Скриншоты
Изображение
Изображение
Изображение
Изображение
Свернуть

Mi
Format : Matroska
File size : 8.76 GiB
Duration : 1h 21mn
Overall bit rate : 15.4 Mbps
Encoded date : UTC 2011-03-07 07:13:49
Writing application : mkvmerge v4.5.0 ('Speed of Light') сборка от Feb 1 2011 02:10:32
Writing library : libebml v1.2.0 + libmatroska v1.1.0

Video
ID : 1
Format : AVC
Format/Info : Advanced Video Codec
Format profile : Main@L4.0
Format settings, CABAC : Yes
Format settings, ReFrames : 4 frames
Muxing mode : Header stripping
Codec ID : V_MPEG4/ISO/AVC
Duration : 1h 21mn
Bit rate mode : Variable
Bit rate : 14.2 Mbps
Maximum bit rate : 40.0 Mbps
Width : 1 920 pixels
Height : 1 080 pixels
Display aspect ratio : 16:9
Frame rate : 50.000 fps
Original frame rate : 25.000 fps
Color space : YUV
Chroma subsampling : 4:2:0
Bit depth : 8 bits
Scan type : Interlaced
Scan order : Top Field First
Bits/(Pixel*Frame) : 0.137
Stream size : 8.12 GiB (93%)
Language : English
Color primaries : BT.709-5, BT.1361, IEC 61966-2-4, SMPTE RP177
Transfer characteristics : BT.709-5, BT.1361
Matrix coefficients : BT.709-5, BT.1361, IEC 61966-2-4 709, SMPTE RP177

Audio #1
ID : 2
Format : AC-3
Format/Info : Audio Coding 3
Mode extension : CM (complete main)
Muxing mode : Header stripping
Codec ID : A_AC3
Duration : 1h 21mn
Bit rate mode : Constant
Bit rate : 384 Kbps
Channel(s) : 2 channels
Channel positions : Front: L R
Sampling rate : 48.0 KHz
Bit depth : 16 bits
Compression mode : Lossy
Stream size : 224 MiB (2%)
Title : Многоголосый НТВ+
Language : Russian

Audio #2
ID : 3
Format : AC-3
Format/Info : Audio Coding 3
Mode extension : CM (complete main)
Muxing mode : Header stripping
Codec ID : A_AC3
Duration : 1h 21mn
Bit rate mode : Constant
Bit rate : 448 Kbps
Channel(s) : 6 channels
Channel positions : Front: L C R, Side: L R, LFE
Sampling rate : 48.0 KHz
Bit depth : 16 bits
Compression mode : Lossy
Stream size : 261 MiB (3%)
Title : Алексей Михалёв
Language : Russian
Свернуть


Свернуть



Голый пистолет 33 и 1/3: Последний выпад
Изображение


Год выпуска: 1994
Страна: США
Жанр: Комедия
Продолжительность: 01:19:04
Перевод: Профессиональный (многоголосый закадровый) НТВ+ ,
Профессиональный (многоголосый закадровый) версия Петра Гланца,
Авторский одноголосый (Алексей Михалёв) ,
Профессиональный (многоголосый закадровый).

Режиссёр: Питер Сигал / Peter Segal
В ролях: Лесли Нильсен, Рикардо Монтальбан, О.Джей Симпсон, Сьюзан Бьюбиан, Джордж Кеннеди, Присцилла Пресли
Описание: В тюрьму к известному бомбисту-террористу Рокко приходит представитель арабских террористов и предлагает ему и его мамаше совершить ужасающий теракт за 5 миллионов. Остановить его может только наш лейтенант Фрэнк Дребин, ушедший на пенсию и решающий брачные проблемы с супругой.
Дело в том, что они никак не могут сделать ребенка. Коллеги уговаривают Фрэнка вернуться на службу в полицию, из-за чего жена бросает его окончательно, и далее следует бесконечный поток шуток, приколов, пародийных ситуаций, в результате которых Фрэнк спасает от взрыва церемонию вручения "Оскара".


Качество: HDTVRip, 1080i
Формат: MKV
Видео кодек: H264 (AVC)
Аудио кодек: AC3 (Dolby Digital)
Видео: MPEG-4 AVC Video,11272 kbps, 1080i ,50 fps
Аудио #1: Russian / Dolby Digital Audio / 5.1 / 48 kHz / 448 kbps [Профессиональный (многоголосый закадровый)НТВ+]
Аудио #2: Russian / Dolby Digital Audio / 5.1 / 48 kHz / 448 kbps [Профессиональный (многоголосый закадровый) версия Петра Гланца]
Аудио #3: Russian / Dolby Digital Audio / 5.1 / 48 kHz / 448 kbps [Авторский одноголосый (Алексей Михалёв)]
Аудио #4: Russian / Dolby Digital Audio / 5.1 / 48 kHz / 448 kbps [Профессиональный (многоголосый закадровый)]
Скриншоты
Изображение

Изображение

Изображение

Изображение
Свернуть

Mi
Format : Matroska
File size : 7.13 GiB
Duration : 1h 19mn
Overall bit rate : 12.9 Mbps
Encoded date : UTC 2011-03-07 08:01:41
Writing application : mkvmerge v4.5.0 ('Speed of Light') сборка от Feb 1 2011 02:10:32
Writing library : libebml v1.2.0 + libmatroska v1.1.0

Video
ID : 1
Format : AVC
Format/Info : Advanced Video Codec
Format profile : Main@L4.0
Format settings, CABAC : Yes
Format settings, ReFrames : 4 frames
Muxing mode : Header stripping
Codec ID : V_MPEG4/ISO/AVC
Duration : 1h 19mn
Bit rate mode : Variable
Bit rate : 10.9 Mbps
Maximum bit rate : 40.0 Mbps
Width : 1 920 pixels
Height : 1 080 pixels
Display aspect ratio : 16:9
Frame rate : 50.000 fps
Original frame rate : 25.000 fps
Color space : YUV
Chroma subsampling : 4:2:0
Bit depth : 8 bits
Scan type : Interlaced
Scan order : Top Field First
Bits/(Pixel*Frame) : 0.105
Stream size : 6.03 GiB (85%)
Language : English
Color primaries : BT.709-5, BT.1361, IEC 61966-2-4, SMPTE RP177
Transfer characteristics : BT.709-5, BT.1361
Matrix coefficients : BT.709-5, BT.1361, IEC 61966-2-4 709, SMPTE RP177

Audio #1
ID : 2
Format : AC-3
Format/Info : Audio Coding 3
Mode extension : CM (complete main)
Muxing mode : Header stripping
Codec ID : A_AC3
Duration : 1h 19mn
Bit rate mode : Constant
Bit rate : 384 Kbps
Channel(s) : 2 channels
Channel positions : Front: L R
Sampling rate : 48.0 KHz
Bit depth : 16 bits
Compression mode : Lossy
Stream size : 217 MiB (3%)
Title : Многоголосый НТВ+
Language : Russian

Audio #2
ID : 3
Format : AC-3
Format/Info : Audio Coding 3
Mode extension : CM (complete main)
Muxing mode : Header stripping
Codec ID : A_AC3
Duration : 1h 19mn
Bit rate mode : Constant
Bit rate : 448 Kbps
Channel(s) : 6 channels
Channel positions : Front: L C R, Side: L R, LFE
Sampling rate : 48.0 KHz
Bit depth : 16 bits
Compression mode : Lossy
Stream size : 253 MiB (3%)
Title : Многоголосый (Пётр Гланц)
Language : Russian

Audio #3
ID : 4
Format : AC-3
Format/Info : Audio Coding 3
Mode extension : CM (complete main)
Muxing mode : Header stripping
Codec ID : A_AC3
Duration : 1h 19mn
Bit rate mode : Constant
Bit rate : 448 Kbps
Channel(s) : 6 channels
Channel positions : Front: L C R, Side: L R, LFE
Sampling rate : 48.0 KHz
Bit depth : 16 bits
Compression mode : Lossy
Stream size : 253 MiB (3%)
Title : Алексей Михалёв
Language : Russian

Audio #4
ID : 5
Format : AC-3
Format/Info : Audio Coding 3
Mode extension : CM (complete main)
Muxing mode : Header stripping
Codec ID : A_AC3
Duration : 1h 19mn
Bit rate mode : Constant
Bit rate : 448 Kbps
Channel(s) : 6 channels
Channel positions : Front: L C R, Side: L R, LFE
Sampling rate : 48.0 KHz
Bit depth : 16 bits
Compression mode : Lossy
Stream size : 253 MiB (3%)
Title : Многоголосый
Language : Russian

Свернуть
Свернуть



Раздача группы:
.Изображение.
_________________
Изображение
Не в сети
Профиль  
 Добавлено: 2011-03-14 22:03 (спустя 7 дней)
Аватара пользователя
Стаж: 8 лет 3 месяца
Возраст: 43
Сообщений: 3290
Спасибок: 21012
Лайков: 3
весчь, Большое спасибо :co_ol:
_________________
Изображение
Не в сети
Профиль  
 Добавлено: 2011-06-16 06:32 (спустя 3 месяца 1 день)
Стаж: 7 лет 11 месяцев
Сообщений: 7
Огромное спасибо, отличный фильм.
Не в сети
Профиль  
 Добавлено: 2011-09-01 18:07 (спустя 2 месяца 15 дней)
Стаж: 6 лет
Сообщений: 44
ну встантье же на раздачу. плиззз!
Не в сети
Профиль  
 Добавлено: 2012-03-13 22:41 (спустя 6 месяцев)
Аватара пользователя
Стаж: 6 лет 11 месяцев
Сообщений: 25
!
Не в сети
Профиль  
 Добавлено: 2012-03-15 22:41 (спустя 2 дня)
Аватара пользователя
Стаж: 6 лет 11 месяцев
Сообщений: 25
Раздайте пожалуйста!!!!!!!!1
Не в сети
Профиль  
 Добавлено: 2012-08-25 14:20 (спустя 5 месяцев 9 дней)
Аватара пользователя
Стаж: 7 лет 11 месяцев
Сообщений: 9
Спасибок: 19
Кто нибудь пожалуйста встанте на раздачу!!!
Не в сети
Профиль  
 Добавлено: 2012-08-31 13:53 (спустя 5 дней)
Аватара пользователя
Стаж: 6 лет 11 месяцев
Возраст: 37
Сообщений: 26
Спасибок: 87
Артурыч начни раздавать пожалуйста.
Не в сети
Профиль  
 Добавлено: 2012-08-31 16:56 (спустя 3 часа)
Модератор релиз-группы
Аватара пользователя
Стаж: 9 лет 1 месяц
Возраст: 97
Сообщений: 11659
Спасибок: 6532
Лайков: 269

катран-н:

Артурыч начни раздавать пожалуйста.
при всём уважении и понимании...
но я не могу раздавать одно и тоже по полтора года :)
_________________
Изображение
Не в сети
Профиль  
Начать новую темуОтветить на тему  [ Сообщений: 9 ] 
Вы не можете начинать темы
Вы не можете отвечать на сообщения
Вы не можете редактировать свои сообщения
Вы не можете удалять свои сообщения