Правила форума

  • В этом разделе создание новых тем Запрещено.
  • Для создания новых тем пользуйтесь Корневым разделом DVD и HD фильмы.
Начать новую темуОтветить на тему  [ Сообщений: 5 ] 
Торрент файл
Размер: 16.46 GB • Зарегистрирован: 2 года 8 месяцев • Статус: Проверено
Скачан: 254 раза • Желающих скачать: 0 • Поблагодарили: 72 раза
 Раздают: 1  |  0 KB/s  ]   Качают: 0  |  0 KB/s  ] 
Сообщения
 Добавлено: 2014-03-09 01:36
Аватара пользователя
Стаж: 9 лет 1 месяц
Сообщений: 7986
Спасибок: 122226
Лайков: 1191
Голодные игры: И вспыхнет пламя / The Hunger Games: Catching Fire

«Помни, кто твой настоящий враг»

Изображение


Год выпуска: 2013
Страна: Изображение США
Жанр: фантастика, боевик, триллер, приключения
Продолжительность: 02:26:15
Субтитры: Русские, английские, испанские
Перевод: Профессиональный (полное дублирование) [Лицензия]


Режиссер: Френсис Лоуренс
Сценарий: Саймон Бофой, Майкл Арндт, Сьюзен Коллинз
Продюсер: Нина Джейкобсон, Джон Килик, Сьюзен Коллинз
Оператор: Джо Уиллемс
Композитор: Джеймс Ньютон Ховард

В ролях: Дженнифер Лоуренс, Джош Хатчерсон, Сэм Клафлин, Джена Мэлоун, Вуди Харрельсон, Элизабет Бэнкс, Лиам Хемсворт, Дональд Сазерленд, Филип Сеймур Хоффман, Стэнли Туччи, Джеффри Райт, Линн Коэн, Ленни Кравиц, Уиллоу Шилдс, Аманда Пламмер, Паула Малкомсон, Джек Куэйд, Тейлор Ст. Клэр, Сандра Эллис Лэфферти, Брук Банди

Описание: Сумев выжить на безжалостных Голодных играх, Китнисс Эвердин и Пит Мелларк возвращаются домой. Но теперь они в еще большей опасности, так как своим отказом играть по правилам на Арене бросили вызов Капитолию. По традиции следующие, юбилейные, Голодные игры должны стать особенными, и в этот раз в них участвуют только победители прошлых лет. Китнисс и Пит вынуждены вновь выйти на Арену, где будут соперничать с сильнейшими. Правила игры меняются. Арена еще опасней, масштаб еще больше, ставки еще выше!

Изображение Изображение

Раздача группы: Изображение

Качество: BDRip (1080p)
Формат: Matroska
Видео: MPEG-4 AVC, 12 Мбит/с, 1920x1080
Аудио №1: Русский (AC3, 48,0 КГц, 6 ch, 640 Кбит/c)
Аудио №2: Русский (DTS, 48,0 КГц, 6 ch, 1510 Кбит/c)
Аудио №3: Английский (DTS, 48,0 КГц, 6 ch, 1510 Кбит/c)

MediaInfo
Общее
Уникальный идентификатор : 191029624790790260608917220090587036870 (0x8FB6F7ABC8ACEDD091300FC47E4ABCC6)
Полное имя : C:\Фильмы\The Hunger Games Catching Fire 2013 IMAX Edition BDRip 1080p.mkv
Формат : Matroska
Версия формата : Version 2
Размер файла : 16,5 Гбайт
Продолжительность : 2 ч. 26 м.
Общий поток : 16,1 Мбит/сек
Название фильма : bog3417
Дата кодирования : UTC 2014-03-08 21:17:34
Программа кодирования : mkvmerge v5.7.0 ('The Whirlwind') built on Jul 29 2012 15:12:35
Библиотека кодирования : libebml v1.2.3 + libmatroska v1.3.0
Attachment : Yes

Видео
Идентификатор : 1
Формат : AVC
Формат/Информация : Advanced Video Codec
Профиль формата : High@L4.1
Параметр CABAC формата : Да
Параметр ReFrames формата : 5 кадров
Идентификатор кодека : V_MPEG4/ISO/AVC
Продолжительность : 2 ч. 26 м.
Битрейт : 12,0 Мбит/сек
Ширина : 1920 пикселей
Высота : 1080 пикселей
Соотношение сторон : 16:9
Режим частоты кадров : Постоянный
Частота кадров : 23,976 кадра/сек
Цветовое пространство : YUV
Субдискретизация насыщенности : 4:2:0
Битовая глубина : 8 бит
Тип развёртки : Прогрессивная
Бит/(Пиксели*Кадры) : 0.241
Размер потока : 11,9 Гбайт (73%)
Заголовок : The Hunger Games Catching Fire 2013 IMAX Edition BDRip 1080p GORESEWAGE
Библиотека кодирования : x264 core 140 r2377+40 929f149 tMod [8-bit@4:2:0 X86_64]
Настройки программы : cabac=1 / ref=5 / deblock=1:-3:-3 / analyse=0x3:0x113 / me=umh / subme=11 / psy=1 / fade_compensate=0.00 / psy_rd=1.15:0.00 / mixed_ref=1 / me_range=32 / chroma_me=1 / trellis=2 / 8x8dct=1 / cqm=0 / deadzone=21,11 / fast_pskip=0 / chroma_qp_offset=-2 / threads=18 / lookahead_threads=3 / sliced_threads=0 / nr=0 / decimate=0 / interlaced=0 / bluray_compat=0 / constrained_intra=0 / fgo=0 / bframes=8 / b_pyramid=2 / b_adapt=2 / b_bias=0 / direct=3 / weightb=1 / open_gop=0 / weightp=2 / keyint=240 / keyint_min=24 / scenecut=40 / intra_refresh=0 / rc=2pass / mbtree=0 / bitrate=12000 / ratetol=1.0 / qcomp=0.70 / qpmin=0:0:0 / qpmax=69:69:69 / qpstep=4 / cplxblur=20.0 / qblur=0.5 / ip_ratio=1.10 / pb_ratio=1.10 / aq=4:0.95 / aq-sensitivity=10.00 / aq-factor=1.00:1.00:1.00 / aq2=0 / aq3=0
Язык : English
Default : Да
Forced : Нет

Аудио #1
Идентификатор : 2
Формат : AC-3
Формат/Информация : Audio Coding 3
Расширение режима : CM (complete main)
Параметр Endianness формата : Big
Идентификатор кодека : A_AC3
Продолжительность : 2 ч. 26 м.
Вид битрейта : Постоянный
Битрейт : 640 Кбит/сек
Каналы : 6 каналов
Расположение каналов : Front: L C R, Side: L R, LFE
Частота : 48,0 КГц
Битовая глубина : 16 бит
Метод сжатия : С потерями
Размер потока : 669 Мбайт (4%)
Язык : Russian
Default : Да
Forced : Да

Аудио #2
Идентификатор : 3
Формат : DTS
Формат/Информация : Digital Theater Systems
Режим : 16
Параметр Endianness формата : Big
Идентификатор кодека : A_DTS
Продолжительность : 2 ч. 26 м.
Вид битрейта : Постоянный
Битрейт : 1509 Кбит/сек
Каналы : 6 каналов
Расположение каналов : Front: L C R, Side: L R, LFE
Частота : 48,0 КГц
Битовая глубина : 16 бит
Метод сжатия : С потерями
Размер потока : 1,54 Гбайт (9%)
Язык : Russian
Default : Нет
Forced : Нет

Аудио #3
Идентификатор : 4
Формат : DTS
Формат/Информация : Digital Theater Systems
Режим : 16
Параметр Endianness формата : Big
Идентификатор кодека : A_DTS
Продолжительность : 2 ч. 26 м.
Вид битрейта : Постоянный
Битрейт : 1509 Кбит/сек
Каналы : 6 каналов
Расположение каналов : Front: L C R, Side: L R, LFE
Частота : 48,0 КГц
Битовая глубина : 24 бит
Метод сжатия : С потерями
Размер потока : 1,54 Гбайт (9%)
Заголовок : Original
Язык : English
Default : Нет
Forced : Нет

Аудио #4
Идентификатор : 5
Формат : AC-3
Формат/Информация : Audio Coding 3
Профиль формата : Dolby Digital
Расширение режима : CM (complete main)
Параметр Endianness формата : Big
Идентификатор кодека : A_AC3
Продолжительность : 2 ч. 26 м.
Вид битрейта : Постоянный
Битрейт : 224 Кбит/сек
Каналы : 2 канала
Расположение каналов : Front: L R
Частота : 48,0 КГц
Битовая глубина : 16 бит
Метод сжатия : С потерями
Размер потока : 234 Мбайт (1%)
Заголовок : Description
Язык : English
Default : Нет
Forced : Нет

Аудио #5
Идентификатор : 6
Формат : AC-3
Формат/Информация : Audio Coding 3
Профиль формата : Dolby Digital
Расширение режима : CM (complete main)
Параметр Endianness формата : Big
Идентификатор кодека : A_AC3
Продолжительность : 2 ч. 26 м.
Вид битрейта : Постоянный
Битрейт : 224 Кбит/сек
Каналы : 2 канала
Расположение каналов : Front: L R
Частота : 48,0 КГц
Битовая глубина : 16 бит
Метод сжатия : С потерями
Размер потока : 234 Мбайт (1%)
Заголовок : Commentary by diector Francis Lawrence & producer Nina Jacobson
Язык : English
Default : Нет
Forced : Нет

Текст #1
Идентификатор : 7
Формат : UTF-8
Идентификатор кодека : S_TEXT/UTF8
Идентификатор кодека/Информация : UTF-8 Plain Text
Заголовок : Full
Язык : Russian
Default : Нет
Forced : Нет

Текст #2
Идентификатор : 8
Формат : UTF-8
Идентификатор кодека : S_TEXT/UTF8
Идентификатор кодека/Информация : UTF-8 Plain Text
Заголовок : Full
Язык : English
Default : Нет
Forced : Нет

Текст #3
Идентификатор : 9
Формат : UTF-8
Идентификатор кодека : S_TEXT/UTF8
Идентификатор кодека/Информация : UTF-8 Plain Text
Заголовок : SDH
Язык : English
Default : Нет
Forced : Нет

Текст #4
Идентификатор : 10
Формат : PGS
Режим смешивания : zlib
Идентификатор кодека : S_HDMV/PGS
Идентификатор кодека/Информация : The same subtitle format used on BDs/HD-DVDs
Заголовок : Full
Язык : Spanish
Default : Нет
Forced : Нет

Меню
00:00:00.000 : en:00:00:00.000
00:11:24.684 : en:00:11:24.684
00:16:48.049 : en:00:16:48.049
00:25:38.078 : en:00:25:38.078
00:35:51.649 : en:00:35:51.649
00:44:22.576 : en:00:44:22.576
00:52:12.921 : en:00:52:12.921
01:01:11.376 : en:01:01:11.376
01:08:12.213 : en:01:08:12.213
01:16:48.938 : en:01:16:48.938
01:22:39.663 : en:01:22:39.663
01:29:21.731 : en:01:29:21.731
01:40:43.913 : en:01:40:43.913
01:50:47.766 : en:01:50:47.766
02:02:46.984 : en:02:02:46.984
02:09:58.958 : en:02:09:58.958
Свернуть
Знаете ли вы, что...
Фильм снят по мотивам романа Сьюзанн Коллинз «И вспыхнет пламя» (Catching Fire, 2009).

Мелисса Лео рассматривалась на роль Мэгз.

Зои Аггелики и Миа Васиковска рассматривались на роль Джоанны Мэйсон прежде чем она досталась Джене Мэлоун.

На место режиссёра рассматривались Дэвид Кроненберг, Альфонсо Куарон, Алехандро Гонсалес Иньярриту и Беннетт Миллер.

Тейлор Китч, Арми Хаммер, Хантер Пэрриш, Грант Гастин, Джои Грэйсфа, Люк Митчелл и Гаррет Хедлунд рассматривались на роль Финника Одэйра. В итоге роль досталась Сэму Клафлину.

Некоторые сцены Капитолия были сняты в отеле Atlanta Marriott Marquis, это один из отелей, где проходит ежегодный съезд «Dragon*con».

Во время съемок на арене Дженнифер Лоуренс ударила себя луком на бегу и нырнула в бассейн, из-за чего она частично оглохла на 6 дней.

Съёмки фильма начались 10 сентября 2012 в Атланте. После Атланты съёмки переместились на Гавайи и закончились они в декабре 2012 года.

Ближе к концу сцены, в которой герои убегают от обезьян, у Китнисс заканчиваются стрелы в колчане. В следующей сцене на берегу колчан полон стрел.

Свернуть
Скриншоты
Изображение
Изображение
Изображение
Изображение
Свернуть
Не в сети
Профиль  
 Добавлено: 2014-03-09 13:07 (спустя 11 часов)
Аватара пользователя
Стаж: 8 лет 3 месяца
Сообщений: 80
Спасибок: 242
В английской дороге рассинхрон
Не в сети
Профиль  
 Добавлено: 2014-03-11 07:47 (спустя 1 день 18 часов)
Аватара пользователя
Стаж: 8 лет 7 месяцев
Сообщений: 55
Спасибок: 100
Лайков: 2
это вторая часть? последняя?
Не в сети
Профиль  
 Добавлено: 2014-03-13 18:43 (спустя 2 дня 10 часов)
Аватара пользователя
Стаж: 6 лет 9 месяцев
Сообщений: 17

ilkman:

это вторая часть? последняя?
Еще две части будут. Голодные игры: сойка-пересмешница часть 1 и Голодные игры: сойка-пересмешница часть 2.
Не в сети
Профиль  
 Добавлено: 2014-03-14 23:05 (спустя 1 день 4 часа)
Стаж: 8 лет 4 месяца
Сообщений: 3
Спасибок: 7
неужели кто-то такой шлак смотрит...
Не в сети
Профиль  
Начать новую темуОтветить на тему  [ Сообщений: 5 ] 
Вы не можете начинать темы
Вы не можете отвечать на сообщения
Вы не можете редактировать свои сообщения
Вы не можете удалять свои сообщения