Правила форума

  • В этом разделе создание новых тем Запрещено.
  • Для создания новых тем пользуйтесь Корневым разделом DVD и HD фильмы.
Начать новую темуОтветить на тему  [ Сообщений: 2 ] 
Торрент файл
Размер: 11.11 GB • Зарегистрирован: 4 года 9 месяцев • Статус: Проверено
Скачан: 343 раза • Желающих скачать: 0 • Поблагодарили: 65 раз
 Раздают: 0  |  0 KB/s  ]   Качают: 0  |  0 KB/s  ] 
 Полного источника не было 2 года 4 месяца 
Сообщения
 Добавлено: 2012-02-14 11:47
Модератор релиз-группы
Аватара пользователя
Стаж: 9 лет 1 месяц
Возраст: 97
Сообщений: 11660
Спасибок: 6533
Лайков: 269
Голодный кролик атакует / Seeking Justice

Изображение

Страна: США
Жанр: боевик, триллер, драма
Год выпуска: 2011
Продолжительность: 01:45:01
Перевод: Профессиональный (полное дублирование)
Оригинальная аудиодорожка

Режиссёр: Роджер Дональдсон / Roger Donaldson

В ролях: Николас Кейдж, Дженьюэри Джонс, Гай Пирс, Дженнифер Карпентер, Хэролд Перрино, Ксандер Беркли, Айрон Э. Синглтон, Майк Пневски, Моника Акоста, Джо Крест

Описание: Фильм сфокусируется на человеке, супруга которого становится жертвой жестокого преступления, и он внедряется в тайную организацию мстителей...
Изображение

Качество: BDRip 1080p
Формат: mkv
Видео: MPEG-4 AVC, 12.1 Мбит/с, 1920x816, 24.000 кадр/с
Аудио: Русский, DTS, 6 ch, ~1536 Кбит/с
Аудио: Aнглийский ,DTS, 6 ch, ~1536 Кбит/с
скриншоты
Изображение

Изображение

Изображение
Свернуть
Mi
Format : Matroska
Format version : Version 2
File size : 11.1 GiB
Duration : 1h 45mn
Overall bit rate : 15.1 Mbps
Movie name : --SCHUMAHER--
Encoded date : UTC 2012-02-13 21:06:00
Writing application : mkvmerge v5.3.0 ('I could have danced') built on Feb 9 2012 10:38:07
Writing library : libebml v1.2.3 + libmatroska v1.3.0

Video
ID : 1
Format : AVC
Format/Info : Advanced Video Codec
Format profile : High@L4.1
Format settings, CABAC : Yes
Format settings, ReFrames : 4 frames
Codec ID : V_MPEG4/ISO/AVC
Duration : 1h 45mn
Bit rate : 12.1 Mbps
Width : 1 920 pixels
Height : 816 pixels
Display aspect ratio : 2.35:1
Frame rate : 24.000 fps
Color space : YUV
Chroma subsampling : 4:2:0
Bit depth : 8 bits
Scan type : Progressive
Bits/(Pixel*Frame) : 0.322
Stream size : 8.67 GiB (78%)
Writing library : x264 core 120 r2146+650 183470d
Encoding settings : cabac=1 / ref=4 / deblock=1:-3:-3 / analyse=0x3:0x113 / me=umh / subme=10 / psy=1 / fade_compensate=0.00 / psy_rd=1.05:0.10 / mixed_ref=1 / me_range=48 / chroma_me=1 / trellis=2 / 8x8dct=1 / cqm=1 / deadzone=21,11 / fast_pskip=0 / chroma_qp_offset=-2 / threads=12 / sliced_threads=0 / nr=0 / decimate=1 / interlaced=0 / bluray_compat=0 / constrained_intra=0 / fgo=0 / bframes=6 / b_pyramid=2 / b_adapt=2 / b_bias=0 / direct=3 / weightb=1 / open_gop=0 / weightp=2 / keyint=250 / keyint_min=24 / scenecut=40 / intra_refresh=0 / rc_lookahead=60 / rc=2pass / mbtree=1 / bitrate=12123 / ratetol=2.0 / qcomp=0.70 / qpmin=3 / qpmax=69 / qpstep=4 / cplxblur=20.0 / qblur=0.5 / vbv_maxrate=40000 / vbv_bufsize=30000 / nal_hrd=none / ip_ratio=1.40 / aq=2:1.00
Language : English
Default : Yes
Forced : Yes

Audio #1
ID : 2
Format : DTS
Format/Info : Digital Theater Systems
Codec ID : A_DTS
Duration : 1h 45mn
Bit rate mode : Constant
Bit rate : 1 510 Kbps
Channel(s) : 6 channels
Channel positions : Front: L C R, Side: L R, LFE
Sampling rate : 48.0 KHz
Bit depth : 16 bits
Compression mode : Lossy
Stream size : 1.11 GiB (10%)
Language : Russian
Default : Yes
Forced : Yes

Audio #2
ID : 3
Format : DTS
Format/Info : Digital Theater Systems
Codec ID : A_DTS
Duration : 1h 45mn
Bit rate mode : Constant
Bit rate : 1 510 Kbps
Channel(s) : 6 channels
Channel positions : Front: L C R, Side: L R, LFE
Sampling rate : 48.0 KHz
Bit depth : 24 bits
Compression mode : Lossy
Stream size : 1.11 GiB (10%)
Language : English
Default : No
Forced : No

Text
ID : 4
Format : UTF-8
Codec ID : S_TEXT/UTF8
Codec ID/Info : UTF-8 Plain Text
Language : English
Default : No
Forced : No

Свернуть
_________________
Изображение
Не в сети
Профиль  
 Добавлено: 2012-03-08 03:22 (спустя 22 дня)
Аватара пользователя
Стаж: 7 лет 6 месяцев
Возраст: 51
Сообщений: 1782
Лайков: 1403
И ПУСТЬ АТАКУЕТ!!!

Это единственный фильм с Никласом Кэйджем, с удовольствием посмотренный мной то ли за пять, то ли даже за семь лет. В нем есть развитие, действие, и не безысходно мрачное выражение лица, не искаженное мимическими судорогами. Давайте дадимте Кэйджу шанс. Хотя бы один из последних, перед его кажущимся вымиранием.

А он возьмет да не вымрет. Ведь он ровесник мой, братик мой, и за что вы лишаете его шансов?

Вон, Джон Травольта. Казалось бы, совсем вымер, однако возродился и не собирается вымирать.

Дадим шанс людям.
Не в сети
Профиль  
Начать новую темуОтветить на тему  [ Сообщений: 2 ] 
Вы не можете начинать темы
Вы не можете отвечать на сообщения
Вы не можете редактировать свои сообщения
Вы не можете удалять свои сообщения