Правила форума

  • В этом разделе создание новых тем Запрещено.
  • Для создания новых тем пользуйтесь Корневым разделом DVD и HD фильмы.
Начать новую темуОтветить на тему  [ Сообщений: 5 ] 
Торрент файл
Размер: 5.12 GB • Зарегистрирован: 2 года 10 месяцев • Статус: T Временный релиз
Скачан: 118 раз • Желающих скачать: 0 • Поблагодарили: 45 раз
 Раздают: 0  |  0 KB/s  ]   Качают: 0  |  0 KB/s  ] 
 Полного источника не было 1 день 22 часа 
Сообщения
 Добавлено: 2014-01-10 14:12
DVD Release Group
Аватара пользователя
Стаж: 7 лет 1 месяц
Сообщений: 3544
Спасибок: 246919
Лайков: 1018
Гонка

Rush


Изображение


Год выпуска: 2013
Страна: США, Германия, Великобритания
Жанр: Боевик, драма, биография, спорт
Продолжительность: 02:02:42
Перевод: Профессиональный (полное дублирование) Чистый звук
Субтитры: Нет
Режиссер: Рон Ховард
В ролях: Крис Хемсворт, Даниэль Брюль, Оливия Уайлд, Александра Мария Лара, Пьерфранческо Фавино, Дэвид Колдер, Натали Дормер, Стефен Мэнгэн, Кристиан МакКэй, Алистэр Петри
Описание: 70-е годы XX века. Золотое время «Формулы-1»: обтекаемые формы гоночных машин, брутальные на треке и ранимые в обычной жизни гонщики, сексуальные поклонницы, литры шампанского на финише для победителя… Два непримиримых соперника в истории гонок — обаятельный плейбой-англичанин Джеймс Хант и дисциплинированный перфекционист-австриец Ники Лауда — доводят себя до предела физической и психологической выносливости ради триумфа на трассе. Для них нет легких путей к победе и права на ошибку. Единственный промах гонщикам может стоить карьеры и даже жизни.
Изображение
Качество: BDRip 720p
Формат: MKV
Видео кодек: H.264
Аудио кодек: AC3, DTS
Видео: 1280x534 23.98fps 5074kbps
Аудио:
Аудио Rus: AC3 48kHz 2ch 128kbps
Аудио Eng: DTS 48kHz 6ch 755kbps
"MediaInfo"
Формат : Matroska
Версия формата : Version 2
Размер файла : 5,12 Гбайт
Продолжительность : 2 ч. 2 м.
Общий поток : 5970 Кбит/сек
Название фильма : Rush.2013.BluRay.720p.DTS.x264-CHD
Дата кодирования : UTC 2014-01-10 09:44:05
Программа кодирования : mkvmerge v6.6.0 ('The Edge Of The In Between') built on Dec 1 2013 17:55:00
Библиотека кодирования : libebml v1.3.0 + libmatroska v1.4.1

Видео
Идентификатор : 1
Формат : AVC
Формат/Информация : Advanced Video Codec
Профиль формата : High@L4.1
Параметр CABAC формата : Да
Параметр ReFrames формата : 11 кадров
Идентификатор кодека : V_MPEG4/ISO/AVC
Продолжительность : 2 ч. 2 м.
Битрейт : 5074 Кбит/сек
Ширина : 1280 пикселей
Высота : 534 пикселя
Соотношение сторон : 2,40:1
Частота кадров : 23,976 кадра/сек
Цветовое пространство : YUV
Субдискретизация насыщенности : 4:2:0
Битовая глубина : 8 бит
Тип развёртки : Прогрессивная
Бит/(Пиксели*Кадры) : 0.310
Размер потока : 4,26 Гбайт (83%)
Заголовок : hahay0yo@CHD
Библиотека кодирования : x264 core 138 r2356 a1d3d17
Настройки программы : cabac=1 / ref=11 / deblock=1:-3:-3 / analyse=0x3:0x113 / me=umh / subme=10 / psy=1 / psy_rd=1.00:0.05 / mixed_ref=1 / me_range=32 / chroma_me=1 / trellis=2 / 8x8dct=1 / cqm=0 / deadzone=21,11 / fast_pskip=0 / chroma_qp_offset=-2 / threads=18 / lookahead_threads=1 / sliced_threads=0 / nr=0 / decimate=1 / interlaced=0 / bluray_compat=0 / constrained_intra=0 / bframes=4 / b_pyramid=2 / b_adapt=2 / b_bias=0 / direct=3 / weightb=1 / open_gop=0 / weightp=2 / keyint=250 / keyint_min=23 / scenecut=40 / intra_refresh=0 / rc=2pass / mbtree=0 / bitrate=5074 / ratetol=1.0 / qcomp=0.70 / qpmin=0 / qpmax=69 / qpstep=4 / cplxblur=20.0 / qblur=0.5 / ip_ratio=1.40 / pb_ratio=1.30 / aq=2:0.80
Язык : English
Default : Да
Forced : Нет

Аудио #1
Идентификатор : 2
Формат : AC-3
Формат/Информация : Audio Coding 3
Расширение режима : CM (complete main)
Идентификатор кодека : A_AC3
Продолжительность : 2 ч. 2 м.
Вид битрейта : Постоянный
Битрейт : 128 Кбит/сек
Каналы : 2 канала
Расположение каналов : Front: L R
Частота : 48,0 КГц
Битовая глубина : 16 бит
Метод сжатия : С потерями
Размер потока : 112 Мбайт (2%)
Язык : Russian
Default : Да
Forced : Нет

Аудио #2
Идентификатор : 3
Формат : DTS
Формат/Информация : Digital Theater Systems
Идентификатор кодека : A_DTS
Продолжительность : 2 ч. 2 м.
Вид битрейта : Постоянный
Битрейт : 755 Кбит/сек
Каналы : 6 каналов
Расположение каналов : Front: L C R, Side: L R, LFE
Частота : 48,0 КГц
Битовая глубина : 24 бит
Метод сжатия : С потерями
Размер потока : 662 Мбайт (13%)
Заголовок : English DTS 5.1 768Kbps
Язык : English
Default : Нет
Forced : Нет

Меню
00:00:00.000 : en:00:00:00.000
00:12:17.028 : en:00:12:17.028
00:21:58.150 : en:00:21:58.150
00:28:46.725 : en:00:28:46.725
00:40:03.192 : en:00:40:03.192
00:48:00.211 : en:00:48:00.211
00:59:03.874 : en:00:59:03.874
01:05:39.769 : en:01:05:39.769
01:19:03.948 : en:01:19:03.948
01:29:31.366 : en:01:29:31.366
01:42:21.635 : en:01:42:21.635
01:46:42.396 : en:01:46:42.396
Свернуть

"Скриншоты"
Изображение
Изображение
Изображение
Изображение
Свернуть

Раздача группы:
Изображение
В сети
Профиль  
 Добавлено: 2014-01-10 14:59 (спустя 47 минут)
Аватара пользователя
Стаж: 7 лет 8 месяцев
Возраст: 24
Сообщений: 299
Спасибок: 71
Лайков: 2
full hd будет?
Не в сети
Профиль  
 Добавлено: 2014-01-10 15:08 (спустя 8 минут)
DVD Release Group
Аватара пользователя
Стаж: 7 лет 1 месяц
Сообщений: 3544
Спасибок: 246919
Лайков: 1018
ronaldoronaldo
Гонка 1080p - надо?
В сети
Профиль  
 Добавлено: 2014-01-10 15:22 (спустя 13 минут)
Аватара пользователя
Стаж: 7 лет 8 месяцев
Возраст: 24
Сообщений: 299
Спасибок: 71
Лайков: 2

rastor:

ronaldoronaldo
Гонка 1080p - надо?

ага
 kits нравится это.
Не в сети
Профиль  
 Добавлено: 2014-01-10 15:50 (спустя 27 минут)
Top-seeder
Аватара пользователя
Стаж: 8 лет 10 месяцев
Сообщений: 181
Спасибок: 82
Лайков: 2
спасибо за скорость, кто там с сэндей :co_ol:
Не в сети
Профиль  
Начать новую темуОтветить на тему  [ Сообщений: 5 ] 
Вы не можете начинать темы
Вы не можете отвечать на сообщения
Вы не можете редактировать свои сообщения
Вы не можете удалять свои сообщения