Правила форума

  • В этом разделе создание новых тем Запрещено.
  • Для создания новых тем пользуйтесь Корневым разделом DVD и HD фильмы.
Начать новую темуОтветить на тему  [ 1 сообщение ] 
Торрент файл
Размер: 12.69 GB • Зарегистрирован: 3 года 6 месяцев • Статус: Проверено
Скачан: 25 раз • Желающих скачать: 0 • Поблагодарили: 3 раза
 Раздают: 0  |  0 KB/s  ]   Качают: 0  |  0 KB/s  ] 
 Полного источника не было 2 года 
Сообщения
 Добавлено: 2013-05-20 16:01
Модератор релиз-группы
Аватара пользователя
Стаж: 9 лет 1 месяц
Возраст: 97
Сообщений: 11660
Спасибок: 6534
Лайков: 269
Гордость и слава / Pride and Glory
«Правда. Честь. Верность. Семья. Чем ты готов пожертвовать?»

Изображение

Год выпуска: 2008
Страна: Германия, США
Жанр: триллер, драма, криминал
Продолжительность: 01:26:33
Перевод: Профессиональный (многоголосый, закадровый)
Субтитры: Русские, английские

Режиссер: Гэвин О`Коннор
Сценарий: Джо Карнахан, Гэвин О`Коннор, Грег О`Коннор
Продюсер: Кейл Бойтер, Тоби Эммерих, Джош Фагин
Оператор: Деклан Куинн
Композитор: Марк Айшем
В ролях: Колин Фаррелл, Эдвард Нортон, Джон Войт, Ноа Эммерик, Дженнифер Эль, Джон Ортиз, Фрэнк Грилло, Ши Уигхэм, Лэйк Белл, Кармен Эджого
Описание: Нью-йоркский полицейский Рэй вырос на понятиях добра и законности. Блюсти порядок - незыблемая основа его рода, семейная традиция. С самого детства он со свояком воспитывался в духе «служить и защищать». Он всегда мечтал стать полицейским, но даже и представить себе не мог, через какой ад предстояло пройти его мировоззрению.
Однажды в городе происходит убийство четырех полицейских. Раскрытие этого преступления становится для Рэя делом чести. В ходе расследования выясняется, что к убийству причастен его старший брат. Все то, во что Рэй свято верил, все его идеалы поставлены под удар. Как поступить: следовать букве закона или следовать интересам семьи?
Изображение
Качество: BDRip 1080p
Формат: mkv
Видео: MPEG-4 AVC, 11.4 Мбит/с, 1920x1080, 23.976 кадр/сек
Аудио: Русский (AC3, 6 ch, 448 Кбит/с)
Аудио: Aнглийский (DTS, 6 ch, 1536 Кбит/с)
"Скриншоты"
Изображение

Изображение

Изображение
Свернуть
Mi
General
Unique ID : 238203278030458708075811047715639994280 (0xB33448588A1DFE688CE09FEC216927A8)
Complete name : D:\Gordost.i.slava.2008.x264.BDRip.1080p.mkv
Format : Matroska
Format version : Version 1
File size : 12.7 GiB
Duration : 2h 10mn
Overall bit rate : 14.0 Mbps
Encoded date : UTC 2010-04-06 18:23:17
Writing application : mkvmerge v2.4.0 ('Fumbling Towards Ecstasy') built on Oct 11 2008 20:13:15
Writing library : libebml v0.7.7 + libmatroska v0.8.1

Video
ID : 1
Format : AVC
Format/Info : Advanced Video Codec
Format profile : High@L4.1
Format settings, CABAC : Yes
Format settings, ReFrames : 5 frames
Format settings, GOP : N=1
Codec ID : V_MPEG4/ISO/AVC
Duration : 2h 10mn
Bit rate : 12.0 Mbps
Width : 1 920 pixels
Height : 1 080 pixels
Display aspect ratio : 16:9
Frame rate mode : Constant
Frame rate : 23.976 fps
Color space : YUV
Chroma subsampling : 4:2:0
Bit depth : 8 bits
Scan type : Progressive
Bits/(Pixel*Frame) : 0.241
Stream size : 10.7 GiB (84%)
Title : Pride and Glory 2008 1080p BluRay DTS x264-CtrlHD
Writing library : x264 core 66 r1114M a933a3e
Encoding settings : cabac=1 / ref=5 / deblock=1:-3:-3 / analyse=0x3:0x113 / me=esa / subme=8 / psy_rd=1.3:0.2 / mixed_ref=0 / me_range=16 / chroma_me=1 / trellis=2 / 8x8dct=1 / cqm=0 / deadzone=21,11 / chroma_qp_offset=-3 / threads=6 / nr=0 / decimate=0 / mbaff=0 / bframes=4 / b_pyramid=0 / b_adapt=2 / b_bias=0 / direct=1 / wpredb=1 / keyint=250 / keyint_min=25 / scenecut=40(pre) / rc=2pass / bitrate=12000 / ratetol=1.0 / qcomp=0.60 / qpmin=10 / qpmax=51 / qpstep=4 / cplxblur=20.0 / qblur=0.5 / ip_ratio=1.40 / pb_ratio=1.30 / aq=1:0.80
Language : English
Default : Yes
Forced : No

Audio #1
ID : 2
Format : AC-3
Format/Info : Audio Coding 3
Mode extension : CM (complete main)
Format settings, Endianness : Big
Codec ID : A_AC3
Duration : 2h 10mn
Bit rate mode : Constant
Bit rate : 448 Kbps
Channel(s) : 6 channels
Channel positions : Front: L C R, Side: L R, LFE
Sampling rate : 48.0 KHz
Bit depth : 16 bits
Compression mode : Lossy
Stream size : 417 MiB (3%)
Language : Russian
Default : Yes
Forced : No

Audio #2
ID : 3
Format : DTS
Format/Info : Digital Theater Systems
Mode : 16
Format settings, Endianness : Big
Codec ID : A_DTS
Duration : 2h 10mn
Bit rate mode : Constant
Bit rate : 1 510 Kbps
Channel(s) : 6 channels
Channel positions : Front: L C R, Side: L R, LFE
Sampling rate : 48.0 KHz
Bit depth : 24 bits
Compression mode : Lossy
Stream size : 1.37 GiB (11%)
Language : English
Default : No
Forced : No

Text #1
ID : 4
Format : UTF-8
Codec ID : S_TEXT/UTF8
Codec ID/Info : UTF-8 Plain Text
Language : Russian
Default : Yes
Forced : No

Text #2
ID : 5
Format : UTF-8
Codec ID : S_TEXT/UTF8
Codec ID/Info : UTF-8 Plain Text
Language : English
Default : No
Forced : No

Свернуть
_________________
Изображение
Не в сети
Профиль  
Начать новую темуОтветить на тему  [ 1 сообщение ] 
Вы не можете начинать темы
Вы не можете отвечать на сообщения
Вы не можете редактировать свои сообщения
Вы не можете удалять свои сообщения