Правила форума

  • В этом разделе создание новых тем Запрещено.
  • Для создания новых тем пользуйтесь Корневым разделом DVD и HD фильмы.
Начать новую темуОтветить на тему  [ Сообщений: 3 ] 
Торрент файл
Размер: 9.51 GB • Зарегистрирован: 5 лет 9 месяцев • Статус: Проверено
Скачан: 34 раза • Желающих скачать: 0 • Поблагодарили: 14 раз
 Раздают: 0  |  0 KB/s  ]   Качают: 0  |  0 KB/s  ] 
 Полного источника не было 2 года 11 месяцев 
Сообщения
 Добавлено: 2011-02-28 10:51
Top-releaser
Аватара пользователя
Стаж: 6 лет 11 месяцев
Возраст: 45
Сообщений: 299
Спасибок: 4106
Лайков: 3
Горец (Режиссерская версия) / Highlander (DC)
«Don't lose your head»

Изображение

Год выпуска: 1986
Страна: США, Великобритания
Жанр: фэнтези, боевик
Продолжительность: 01:56:39
Перевод: Профессиональный (многоголосый, закадровый), Авторский (Визгунов Сергей), Авторский (Гаврилов Андрей), Авторский (Горчаков Василий), Авторский (Живов Юрий)

Режиссер: Рассел Малкэй / Russell Mulcahy
Сценарий: Грегори Уайден / Gregory Widen, Питер Беллвуд / Peter Bellwood, Ларри Фергусон / Larry Ferguson
Продюсер: Питер С. Дэвис / Peter S. Davis, Уильям Н. Пэнзер / William N. Panzer, Е. С. Монелл / E.C. Monell, Ева Монли / Eva Monley, Харольд Московитц / Harold Moskovitz
Оператор: Джерри Фишер / Gerry Fisher
Композитор: Майкл Кэмен / Michael Kamen

В ролях: Кристофер Ламберт (Connor The Highlandere MacLeod / Russell Edwin Nash), Роксэнн Харт (Brenda J. Wyatt), Клэнси Браун (Victor Kruger / The Kurgan), Шон Коннери (Juan Sanchez Villa-Lobos Ramirez), Бети Эдни (Heather MacLeod), Алан Норт (Lieutenant Frank Moran), Джон Полито (Det. Walter Bedsoe), Шила Гиш (Rachel Ellenstein), Хью Куарши (Sunda Kastagir), Кристофер Малкольм (Kirk Matunas), Питер Дайэмонд (Aman Fasil), Билли Хартмен (Dugal MacLeod)
Описание: Коннор Маклауд - шотландец, который в 1536 году был сражен в битве, но мистическим образом воскрес, и родной клан изгнал его. Учителем Маклауда стал испанский дворянин, объяснивший, что он принадлежит к бессмертной расе воинов, которых можно лишить жизни, лишь обезглавив мечом...
Сражение между Маклаудом и его вечным врагом Курганом, начавшееся в Шотландии XVI века, подолжается в современном Манхеттене. От исхода этой битвы зависит судьба всех смертных. Это часть дуэли, продолжающейся веками.

Изображение
Бюджет: $16 000 000
Сборы в США: $5 900 000
Мировая премьера: 7 марта 1986
Релиз на DVD: 15 марта 2011, «Юниверсал Пикчерс Рус»
Изображение

MPAA: Изображение - Лицам до 17 лет обязательно присутствие взрослого
Качество: BDRip, 1080p
Формат: Matroska
Видео: AVC; 1920x1040 (16:9); 8018 Kbps; 24 fps; 0,167 bpp
Аудио №1: Russian; AC3; 48 KHz; 384 Kbps; CBR; 6 ch; [Профессиональный (многоголосый, закадровый)]
Аудио №2: Russian; DTS; 48 KHz; 754 Kbps; CBR; 6 ch; 24 bit; [Профессиональный (многоголосый, закадровый)]
Аудио №3: Russian; AC3; 48 KHz; 192 Kbps; CBR; 2 ch; [Гаврилов]
Аудио №4: Russian; AC3; 48 KHz; 192 Kbps; CBR; 2 ch; [Визгунов]
Аудио №5: Russian; AC3; 48 KHz; 192 Kbps; CBR; 2 ch; [Горчаков]
Аудио №6: Russian; AC3; 48 KHz; 192 Kbps; CBR; 2 ch; [Живов]
Аудио №7: English; DTS; 48 KHz; 1509 Kbps; CBR; 6 ch; 24 bit; [Original]
Субтитры №1: Russian
Субтитры №2: English

Раздача группы:Изображение Релиз группы:Изображение
"MediaInfo"
Общее
Уникальный идентификатор : 229938512519097591713887702710635224447 (0xACFC8BF218872B25A9CF190BFF745D7F)
Полное имя :J:\Torrents\Progect\Горец (Highlander)[1986, BDRip, 1080p].mkv
Формат : Matroska
Размер файла : 9,51 Гбайт
Продолжительность : 1 ч. 56 м.
Общий поток : 11,7 Мбит/сек
Название фильма : =kinozal.tv-HD=
Дата кодирования : UTC 2009-06-23 10:25:51
Программа кодирования : mkvmerge v2.2.0 ('Turn It On Again') built on Mar 4 2008 13:20:25
Библиотека кодирования : libebml v0.7.7 + libmatroska v0.8.1

Видео
Идентификатор : 1
Формат : AVC
Формат/Информация : Advanced Video Codec
Профиль формата : High@L4.1
Параметр CABAC формата : Да
Параметр ReFrames формата : 4 кадры
Идентификатор кодека : V_MPEG4/ISO/AVC
Продолжительность : 1 ч. 56 м.
Битрейт : 8243 Кбит/сек
Ширина : 1920 пикс.
Высота : 1040 пикс.
Соотношение сторон : 16:9
Частота кадров : 24,000 кадр/сек
Цветовое пространство : YUV
Подвыборка цветности : 4:2:0
Битовая глубина : 8 бит
Тип развёртки : Прогрессивная
Бит/(Пиксели*Кадры) : 0.172
Размер потока : 6,53 Гбайт (69%)
Библиотека кодирования : x264 core 67 r1165M 6841c5e
Настройки программы : cabac=1 / ref=4 / deblock=1:0:0 / analyse=0x3:0x2 / me=umh / subme=7 / psy_rd=1.0:0.0 / mixed_ref=1 / me_range=16 / chroma_me=1 / trellis=1 / 8x8dct=1 / cqm=0 / deadzone=21,11 / chroma_qp_offset=-2 / threads=6 / nr=0 / decimate=1 / mbaff=0 / bframes=3 / b_pyramid=1 / b_adapt=1 / b_bias=0 / direct=1 / wpredb=1 / keyint=250 / keyint_min=25 / scenecut=40 / rc=2pass / bitrate=8243 / ratetol=1.0 / qcomp=0.60 / qpmin=10 / qpmax=51 / qpstep=4 / cplxblur=20.0 / qblur=0.5 / ip_ratio=1.40 / pb_ratio=1.30 / aq=1:1.00
Язык : English

Аудио #1
Идентификатор : 2
Формат : AC-3
Формат/Информация : Audio Coding 3
Расширение режима : CM (complete main)
Идентификатор кодека : A_AC3
Продолжительность : 1 ч. 56 м.
Вид битрейта : Постоянный
Битрейт : 384 Кбит/сек
Канал(ы) : 6 канала(ов)
Расположение каналов : Front: L C R, Side: L R, LFE
Частота : 48,0 КГц
Битовая глубина : 16 бит
Метод сжатия : С потерями
Размер потока : 320 Мбайт (3%)
Заголовок : Многоголоска
Язык : Russian

Аудио #2
Идентификатор : 3
Формат : DTS
Формат/Информация : Digital Theater Systems
Идентификатор кодека : A_DTS
Продолжительность : 1 ч. 56 м.
Вид битрейта : Постоянный
Битрейт : 755 Кбит/сек
Канал(ы) : 6 канала(ов)
Расположение каналов : Front: L C R, Side: L R, LFE
Частота : 48,0 КГц
Битовая глубина : 24 бит
Метод сжатия : С потерями
Размер потока : 630 Мбайт (6%)
Заголовок : Многоголоска
Язык : Russian

Аудио #3
Идентификатор : 4
Формат : AC-3
Формат/Информация : Audio Coding 3
Расширение режима : CM (complete main)
Идентификатор кодека : A_AC3
Продолжительность : 1 ч. 56 м.
Вид битрейта : Постоянный
Битрейт : 192 Кбит/сек
Канал(ы) : 2 канала(ов)
Расположение каналов : Front: L R
Частота : 48,0 КГц
Битовая глубина : 16 бит
Метод сжатия : С потерями
Размер потока : 160 Мбайт (2%)
Заголовок : Гаврилов
Язык : Russian

Аудио #4
Идентификатор : 5
Формат : AC-3
Формат/Информация : Audio Coding 3
Расширение режима : CM (complete main)
Идентификатор кодека : A_AC3
Продолжительность : 1 ч. 56 м.
Вид битрейта : Постоянный
Битрейт : 192 Кбит/сек
Канал(ы) : 2 канала(ов)
Расположение каналов : Front: L R
Частота : 48,0 КГц
Битовая глубина : 16 бит
Метод сжатия : С потерями
Размер потока : 160 Мбайт (2%)
Заголовок : Визгунов
Язык : Russian

Аудио #5
Идентификатор : 6
Формат : AC-3
Формат/Информация : Audio Coding 3
Расширение режима : CM (complete main)
Идентификатор кодека : A_AC3
Продолжительность : 1 ч. 56 м.
Вид битрейта : Постоянный
Битрейт : 192 Кбит/сек
Канал(ы) : 2 канала(ов)
Расположение каналов : Front: L R
Частота : 48,0 КГц
Битовая глубина : 16 бит
Метод сжатия : С потерями
Размер потока : 160 Мбайт (2%)
Заголовок : Горчаков
Язык : Russian

Аудио #6
Идентификатор : 7
Формат : AC-3
Формат/Информация : Audio Coding 3
Расширение режима : CM (complete main)
Идентификатор кодека : A_AC3
Продолжительность : 1 ч. 56 м.
Вид битрейта : Постоянный
Битрейт : 192 Кбит/сек
Канал(ы) : 2 канала(ов)
Расположение каналов : Front: L R
Частота : 48,0 КГц
Битовая глубина : 16 бит
Метод сжатия : С потерями
Размер потока : 160 Мбайт (2%)
Заголовок : Живов
Язык : Russian

Аудио #7
Идентификатор : 8
Формат : DTS
Формат/Информация : Digital Theater Systems
Идентификатор кодека : A_DTS
Продолжительность : 1 ч. 56 м.
Вид битрейта : Постоянный
Битрейт : 1510 Кбит/сек
Канал(ы) : 6 канала(ов)
Расположение каналов : Front: L C R, Side: L R, LFE
Частота : 48,0 КГц
Битовая глубина : 24 бит
Метод сжатия : С потерями
Размер потока : 1,23 Гбайт (13%)
Язык : English

Текст #1
Идентификатор : 9
Формат : UTF-8
Идентификатор кодека : S_TEXT/UTF8
Идентификатор кодека/Информация : UTF-8 Plain Text
Язык : Russian

Текст #2
Идентификатор : 10
Формат : UTF-8
Идентификатор кодека : S_TEXT/UTF8
Идентификатор кодека/Информация : UTF-8 Plain Text
Язык : English
Свернуть
Изображение
"Скриншоты"

Изображение
Изображение
Изображение
Изображение
Изображение
Изображение
Свернуть
"Знаете ли Вы, что..."
  • В сериале главную роль играл Эдриан Пол; его герой Дункан МакЛауд был младшим братом Коннора. Кристофер Ламберт появился в сериале только как приглашенная звезда.
  • Клэнси Браун чуть не отказался от роли Кургана, ссылаясь на то, что его аллергия на грим помешает ему носить на съемках специальную маску.
  • Замок, в котором жил Маклауд, тот же, что фигурирует в фильме «Монти Пайтон и Святой Грааль» (1975 г.).
  • Конор Маклауд произносит в фильме фразу «Это сродни волшебству». Примерно также «A Kind of Magic» называется альбом группы Queen, песни из которого вошли в саунтрек картины. Ветеран войны во Вьетнаме, пытающийся застрелить Кургана, слушает в своей машине песню «Hammer to Fall» в исполнении Queen.
  • Почти все сцены фильма, где действие происходит в Нью-Йорке, на самом деле снимались в Лондоне. В частности, сцену схватки Кургана и Кастагира сняли в аллее, предназначенной на слом через несколько месяцев. Там же устроили взрыв, который оказался столь громким, что на него съехалась полиция с восьми округов.
  • Европейская версия фильма включает в себя ретроспективные кадры событий во время Второй Мировой войны, когда Маклауд спасает Рейчел, тогда еще маленькую девочку. Из американского варианта фильма эти эпизоды были вырезаны.
  • В сцене, когда Маклауд отрубил голову Кургану, режиссер хотел оживить дракона на шлеме Кургана. Дракон должен был снова напасть на Маклауда и только после победы над Драконом-призраком Маклауд бы получить свою награду. Эта идея в конечном итоге была отвергнута из-за ограничений бюджета картины.
  • Когда Бренда сравнивает подписи на различных свидетельствах о рождении Маклауда, то на экране монитора мы видим предыдущие псевдонимы Коннора Маклауда: Adrien Montagu, Jacques Lefebert, Alfred Nicholson и Rupert Wallingford.
  • Среди многих старинных вещей в хранилище Маклауда можно заметить шляпу и камзол Рамиреса.
  • Из фильма была вырезана сцена, где Курган сражается с бессмертным Юн Дол Кимом.
  • Кристофер Ламберт и Шон Коннери находились в прекрасных отношениях во время съемок картины и называли друг друга именами своих персонажей и вне съемочной площадки. Именно по настоянию Ламберта продюсеры вернули героя Коннери во второй фильм.
  • Небольшой отрывок из песни «Нью-Йорк, Нью-Йорк» был исполнен группой Queen специально для фильма и не входит ни в один альбом группы.
  • Когда Кристофер Ламберт приступил к съемкам этого фильма, он еще плохо говорил по-английски, единственный фильм на английском языке в котором он до этого снимался, был «Легенда о Тарзане, Бог обезьян» («The Legend of Tarzan, Lord of the Apes») 1984 года. И там он говорил на английском всего несколько слов.
  • В 2000 году в США на компакт-дисках вышла опера, написанная по мотивам знаменитых приключений бессмертного Горца. Авторами оперы стали Роджер Беллонн и Харлан Коллигз.
  • Церковная сцена с участием Кургана (Клэнси Браун) была снята в ночное время под наблюдением священников. Выданные экспромтом реплики Брауна были настолько кощунственными, что священники, стоящие вне кадра, услышав их, перекрестились.
Свернуть
Не в сети
Профиль  
 Добавлено: 2011-09-17 23:11 (спустя 6 месяцев)
Стаж: 7 лет 7 месяцев
Сообщений: 196
Спасибок: 1
Лайков: 8
Раздайте плиз! Скорости никакой!
Не в сети
Профиль  
 Добавлено: 2011-12-24 00:11 (спустя 3 месяца 6 дней)
Стаж: 7 лет 7 месяцев
Сообщений: 196
Спасибок: 1
Лайков: 8
ДОРАЗДАЙТЕ!!! УЖЕ 3 МЕСЯЦА КАЧАЮ И 40% ВСЕГО СКАЧАЛ!!!!!!
Не в сети
Профиль  
Начать новую темуОтветить на тему  [ Сообщений: 3 ] 
Вы не можете начинать темы
Вы не можете отвечать на сообщения
Вы не можете редактировать свои сообщения
Вы не можете удалять свои сообщения