Правила форума

  • В этом разделе создание новых тем Запрещено.
  • Для создания новых тем пользуйтесь Корневым разделом DVD и HD фильмы.
Начать новую темуОтветить на тему  [ Сообщений: 5 ] 
Торрент файл
Размер: 7.04 GB • Зарегистрирован: 2 года 2 месяца • Статус: Проверено
Скачан: 455 раз • Желающих скачать: 0 • Поблагодарили: 95 раз
 Раздают: 5  |  224 KB/s  ]   Качают: 0  |  0 KB/s  ] 
Сообщения
 Добавлено: 2014-09-26 21:24
Аватара пользователя
Стаж: 9 лет
Сообщений: 7899
Спасибок: 122084
Лайков: 1190
Город грехов 2: Женщина, ради которой стоит убивать / Sin City: A Dame to Kill For

«There is no justice without sin»

Изображение


Год выпуска: 2014
Страна: Изображение США Изображение Россия
Жанр: триллер, криминал
Продолжительность: 01:42:46
Перевод: Профессиональный (полное дублирование) [Лицензия]



Режиссер: Роберт Родригес, Фрэнк Миллер
Сценарий: Фрэнк Миллер
Продюсер: Роберт Родригес, Аарон Кауфман, Стивен Л’Орё
Оператор: Роберт Родригес
Композитор: Роберт Родригес, Карл Тиль

В ролях: Ева Грин, Микки Рурк, Джош Бролин, Джессика Альба, Джозеф Гордон-Левитт, Розарио Доусон, Пауэрс Бут, Деннис Хейсбёрт, Джейми Чунг, Брюс Уиллис



Описание: В темных переулках Города Грехов Дуайт планирует жестоко отомстить женщине по имени Ава Лорд, которая его предала, в то время как Нэнси пытается смириться со смертью детектива Хартигана.


Изображение Изображение


Раздача группы: Изображение


Качество: BDRip (1080p)
Формат: Matroska
Видео: MPEG-4 AVC, 7654 Кбит/с, 1920x1036
Аудио №1: Русский (AC3, 48,0 КГц, 6 ch, 640 Кбит/c)
Аудио №2: Русский (DTS, 48,0 КГц, 6 ch, 1510 Кбит/c)

MediaInfo
Общее
Уникальный идентификатор : 241431320719362527134650531909631540177 (0xB5A1FB2361D0C7029DBBDF7D685CFBD1)
Полное имя : C:\Фильмы\Город.Грехов.2.2014.BDRip.(1080p).tahiy.mkv
Формат : Matroska
Версия формата : Version 4 / Version 2
Размер файла : 7,04 Гбайт
Продолжительность : 1 ч. 42 м.
Общий поток : 9806 Кбит/сек
Название фильма : Город.Грехов.2.2014.BDRip.(1080p).tahiy
Дата кодирования : UTC 2014-09-26 16:39:28
Программа кодирования : mkvmerge v6.6.0 ('The Edge Of The In Between') built on Dec 1 2013 17:55:00
Библиотека кодирования : libebml v1.3.0 + libmatroska v1.4.1

Видео
Идентификатор : 1
Формат : AVC
Формат/Информация : Advanced Video Codec
Профиль формата : High@L4.1
Параметр CABAC формата : Да
Параметр ReFrames формата : 4 кадра
Идентификатор кодека : V_MPEG4/ISO/AVC
Продолжительность : 1 ч. 42 м.
Битрейт : 7654 Кбит/сек
Ширина : 1920 пикселей
Высота : 1036 пикселей
Соотношение сторон : 1,85:1
Режим частоты кадров : Постоянный
Частота кадров : 24,000 кадра/сек
Цветовое пространство : YUV
Субдискретизация насыщенности : 4:2:0
Битовая глубина : 8 бит
Тип развёртки : Прогрессивная
Бит/(Пиксели*Кадры) : 0.160
Размер потока : 5,36 Гбайт (76%)
Заголовок : Город.Грехов.2.2014.BDRip.(1080p).tahiy
Библиотека кодирования : x264 core 130 r2273 b3065e6
Настройки программы : cabac=1 / ref=4 / deblock=1:-2:-2 / analyse=0x3:0x113 / me=umh / subme=10 / psy=1 / psy_rd=1.00:0.20 / mixed_ref=1 / me_range=32 / chroma_me=1 / trellis=2 / 8x8dct=1 / cqm=0 / deadzone=21,11 / fast_pskip=0 / chroma_qp_offset=-3 / threads=6 / lookahead_threads=1 / sliced_threads=0 / nr=0 / decimate=0 / interlaced=0 / bluray_compat=0 / constrained_intra=0 / bframes=8 / b_pyramid=2 / b_adapt=2 / b_bias=0 / direct=3 / weightb=1 / open_gop=0 / weightp=2 / keyint=240 / keyint_min=23 / scenecut=40 / intra_refresh=0 / rc_lookahead=40 / rc=2pass / mbtree=0 / bitrate=7654 / ratetol=1.0 / qcomp=0.60 / qpmin=0 / qpmax=69 / qpstep=4 / cplxblur=20.0 / qblur=0.5 / vbv_maxrate=50000 / vbv_bufsize=62500 / nal_hrd=none / ip_ratio=1.40 / pb_ratio=1.30 / aq=1:1.00
Язык : English
Default : Да
Forced : Нет

Аудио #1
Идентификатор : 2
Формат : DTS
Формат/Информация : Digital Theater Systems
Режим : 16
Параметр Endianness формата : Big
Идентификатор кодека : A_DTS
Продолжительность : 1 ч. 42 м.
Вид битрейта : Постоянный
Битрейт : 1510 Кбит/сек
Каналы : 6 каналов
Расположение каналов : Front: L C R, Side: L R, LFE
Частота : 48,0 КГц
Битовая глубина : 24 бит
Метод сжатия : С потерями
Размер потока : 1,08 Гбайт (15%)
Заголовок : DTS
Язык : Russian
Default : Да
Forced : Нет

Аудио #2
Идентификатор : 3
Формат : AC-3
Формат/Информация : Audio Coding 3
Расширение режима : CM (complete main)
Параметр Endianness формата : Big
Идентификатор кодека : A_AC3
Продолжительность : 1 ч. 42 м.
Вид битрейта : Постоянный
Битрейт : 640 Кбит/сек
Каналы : 6 каналов
Расположение каналов : Front: L C R, Side: L R, LFE
Частота : 48,0 КГц
Битовая глубина : 16 бит
Метод сжатия : С потерями
Размер потока : 470 Мбайт (7%)
Заголовок : AC3
Язык : Russian
Default : Нет
Forced : Нет
Свернуть
Знаете ли вы, что...
Фильм снят по мотивам графических романов Фрэнка Миллера «Дама, ради которой можно убить» (A Dame to Kill For) и «Просто еще одна субботняя ночь» (Just Another Saturday Night).

Роберт Родригес настоял на том, чтобы фильм сразу снимали в 3D, а не конвертировали в этот формат на стадии пост-продакшна. Имея опыт работы с камерами Alexa, он прекрасно понимал все возможности, которые они дают.

Плакат фильма, на котором изображена актриса Ева Грин, был запрещен в США к распространению. По мнению цензоров из Кинематографической ассоциации Америки, обнаженная девушка на постере выглядит «излишне сексуально».

За семь лет перерыва между выходом первого фильма и началом основных съемок второго Бриттани Мерфи и Майкл Кларк Дункан скончались, в результате Роберту Родригесу пришлось искать других актеров на их роли. Из-за беременности Девон Аоки вместо нее на роль Михо взяли Джейми Чунг. А Джереми Пивен был взят на роль Майкла Мэдсена.

Главная роль первоначально предлагалась Джонни Деппу, но он отказался из-за несогласованности расписаний съемок. Позже на его место пригласили Джозефа Гордона-Левитта, который согласился, несмотря на предложения от таких проектов, как «Стражи Галактики» (2014) и «Годзилла» (2014).

Сальма Хайек, Роуз МакГоун, Анджелина Джоли, Рейчел Вайс, Мишель Уильямс, Хелена Бонем Картер, Скарлетт Йоханссон, Энн Хэтэуэй и Дженнифер Лоуренс рассматривались на роль Эвы, но в итоге роль досталась Еве Грин.

Ева Грин и Мартон Чокаш сыграли супружескую пару. В реальной жизни у них были отношения в период с 2005 по 2009 год.

Изначально Джозеф Гордон-Левитт не одобрял участие Леди Гаги в съемках фильма. Но только отыграв первый совместный дубль он был ошеломлен ее театральным талантом, по словам Джозефа она идеально раскрыла все черты своего персонажа. Впоследствии актеры стали хорошими друзьями и неоднократно сотрудничали вновь.

Весь фильм был снят на зеленом фоне. При этом из реквизита на съемочной площадке использовались только дверные проемы, ступени лестниц, а также такие основные предметы, как столы и стулья. Все остальное было создано при помощи компьютерной графики. А чтобы актеры смогли почувствовать, где они находятся, им перед съемками демонстрировали 3D-модели этих мест.

Дуйата МакКарти, которого в фильме «Город грехов» (2005) сыграл Клайв Оуэн, теперь играет Джош Бролин. По сюжету Бролин играет МакКарти в период до пластической операции по изменению лица. Об этой операции Шелли (Бриттани Мерфи) упоминала в первом фильме.

Свернуть
Скриншоты
Изображение
Изображение
Изображение
Изображение
Свернуть
В сети
Профиль  
 Добавлено: 2014-09-27 08:16 (спустя 10 часов)
Стаж: 7 лет 2 месяца
Сообщений: 80
Спасибок: 88
ДОСТОЙНОЕ СТИЛЬНОЕ ПРОДОЛЖЕНИЕ......РОДРИГЕС МОЛОДЕЦ
Не в сети
Профиль  
 Добавлено: 2014-09-27 20:54 (спустя 12 часов)
Стаж: 7 лет 8 месяцев
Сообщений: 31
Я бы так не сказал :) . Среднее качество фильма , даже рейтинги никакие. 1 раз посмотреть можно, хотя 1-й фильмы смотрел несколько раз.
Не в сети
Профиль  
 Добавлено: 2014-09-28 20:17 (спустя 23 часа)
Аватара пользователя
Стаж: 8 лет 9 месяцев
Сообщений: 1170
Спасибок: 1294
Лайков: 7
если не сравнивать с первым фильмом, эта часть - достойное внимания кино?
Не в сети
Профиль  
 Добавлено: 2014-09-29 17:22 (спустя 21 час)
Аватара пользователя
Стаж: 8 лет 11 месяцев
Возраст: 55
Сообщений: 14342
Спасибок: 181
Лайков: 1182

Snork:

если не сравнивать с первым фильмом, эта часть - достойное внимания кино?
На любителя...Разок глянуть можно.
Ежели не равнодушны к Еве Грин - тем более! Как обычно она весь фильм вытягивает, своими прелестями (тема сисек и всего тела раскрыта).
А так...Более жёсткое обсасывание первого фильма.
_________________
Изображение
Блин...
Изображение
Не в сети
Профиль  
Начать новую темуОтветить на тему  [ Сообщений: 5 ] 
Вы не можете начинать темы
Вы не можете отвечать на сообщения
Вы не можете редактировать свои сообщения
Вы не можете удалять свои сообщения