Правила форума

  • В этом разделе создание новых тем Запрещено.
  • Для создания новых тем пользуйтесь Корневым разделом DVD и HD фильмы.
Начать новую темуОтветить на тему  [ 1 сообщение ] 
Торрент файл
Размер: 4.7 GB • Зарегистрирован: 3 года 7 месяцев • Статус: T Временный релиз
Скачан: 144 раза • Желающих скачать: 0 • Поблагодарили: 39 раз
 Раздают: 0  |  0 KB/s  ]   Качают: 0  |  0 KB/s  ] 
 Полного источника не было 2 года 1 месяц 
Сообщения
 Добавлено: 2013-04-21 08:09
Аватара пользователя
Стаж: 7 лет 4 месяца
Возраст: 28
Сообщений: 340
Спасибок: 4350
Лайков: 2


Город порока / Broken City

«Доказательство может быть мощным оружием.»


Изображение


Год выпуска: 2013
Производство: США / Regency Enterprises, Emmett/Furla Films, Black Bear Pictures
Жанр: Триллер, драма, криминал
Продолжительность: 01:48:40
Перевод: Профессиональный (полное дублирование) Чистый звук
Субтитры: Вшитые отключаемые
Язык субтитров: Английский, Испанский


Режиссер: Аллен Хьюз


Продюсер: Рэндолл Эмметт, Джордж Фурла, Аллен Хьюз


В ролях: Марк Уолберг / Mark Wahlberg (Billy Taggart), Рассел Кроу / Russell Crowe (Mayor Hostetler), Кэтрин Зета-Джонс / Catherine Zeta-Jones (Cathleen Hostetler), Барри Пеппер / Barry Pepper (Jack Valliant), Кайл Чандлер / Kyle Chandler (Paul Andrews), Натали Мартинез / Natalie Martinez (Natalie Barrow), Джеффри Райт / Jeffrey Wright (Carl Fairbanks), Алона Тал / Alona Tal (Katy Bradshaw), Майкл Бич / Michael Beach (Tony Jansen), Джеймс Рэнсон / James Ransone (Todd Lancaster)


Роли дублировали: Александр Головчанский, Даниил Эльдаров


Описание: История бывшего полицейского Билли Таггерта. Восемь лет назад он стрелял в 16-летнего подростка, за что был уволен из полиции. Теперь Таггерт работает частным детективом, которого нанимает мэр, чтобы тот разузнал, не изменяет ли ему жена. Однако расследование адюльтера супруги мэра выливается в настоящий скандал. Человек, с которым жена мэра изменяла мужу, убит, а на поверхность всплывает нехорошая история с недвижимостью.


Изображение Изображение Изображение

Дата мировой премьеры: 18 января 2013
Бюджет: $35 000 000
Сборы в США: $19 701 164


Качество: BDRip 720p
Формат: MKV
Видео кодек: MPEG-4 AVC / H.264
Аудио кодек: AC3 5.1 / DTS
Видео: 1280 x 532 (2.40:1), 23.976fps, MPEG-4 AVC / H.264 ~ 4238Kbps, 0.260 Bits/Pixel
Аудио #1: 48.0 KHZ, AC3 (6ch), 448 Kbps [Русский, Дубляж]
Аудио #2: 48.0 KHZ, DTS (6ch), 1510 Kbps [Английский]


MediaInfo:
  • General
    Unique ID : 177562934820578519374341120780233194924 (0x85956097F0AF7782A60A6C6DD7C5BDAC)
    Complete name : D:\Фильмы\Gorod.Poroka.2013.D.BDRip.720p.NNM-CLUB.mkv
    Format : Matroska
    Format version : Version 2
    File size : 4.70 GiB
    Duration : 1h 48mn
    Overall bit rate : 6 194 Kbps
    Movie name : -=NNM-CLUB.RU=-
    Encoded date : UTC 2013-04-20 21:41:48
    Writing application : mkvmerge v2.9.9 ('Tutu') built on Nov 25 2009 21:13:32
    Writing library : libebml v0.7.9 + libmatroska v0.8.1

  • Video #1
    ID : 1
    Format : AVC
    Format/Info : Advanced Video Codec
    Format profile : High@L4.1
    Format settings, CABAC : Yes
    Format settings, ReFrames : 12 frames
    Codec ID : V_MPEG4/ISO/AVC
    Duration : 1h 48mn
    Bit rate : 4 238 Kbps
    Width : 1 280 pixels
    Height : 532 pixels
    Display aspect ratio : 2.40:1
    Frame rate mode : Constant
    Frame rate : 23.976 fps
    Color space : YUV
    Chroma subsampling : 4:2:0
    Bit depth : 8 bits
    Scan type : Progressive
    Bits/(Pixel*Frame) : 0.260
    Stream size : 3.12 GiB (66%)
    Title : Broken.City.2013.BluRay.720p.DTS.x264-CHD
    Writing library : x264 core 130 r2273 b3065e6
    Encoding settings : cabac=1 / ref=12 / deblock=1:-3:-3 / analyse=0x3:0x113 / me=umh / subme=10 / psy=1 / psy_rd=1.00:0.05 / mixed_ref=1 / me_range=32 / chroma_me=1 / trellis=2 / 8x8dct=1 / cqm=0 / deadzone=21,11 / fast_pskip=0 / chroma_qp_offset=-2 / threads=8 / lookahead_threads=1 / sliced_threads=0 / nr=0 / decimate=1 / interlaced=0 / bluray_compat=0 / constrained_intra=0 / bframes=5 / b_pyramid=2 / b_adapt=2 / b_bias=0 / direct=3 / weightb=1 / open_gop=0 / weightp=2 / keyint=250 / keyint_min=23 / scenecut=40 / intra_refresh=0 / rc=2pass / mbtree=0 / bitrate=4238 / ratetol=1.0 / qcomp=0.70 / qpmin=0 / qpmax=69 / qpstep=4 / cplxblur=20.0 / qblur=0.5 / ip_ratio=1.40 / pb_ratio=1.30 / aq=2:0.90
    Language : English
    Default : No
    Forced : No

  • Audio #2
    ID : 2
    Format : AC-3
    Format/Info : Audio Coding 3
    Mode extension : CM (complete main)
    Format settings, Endianness : Big
    Codec ID : A_AC3
    Duration : 1h 48mn
    Bit rate mode : Constant
    Bit rate : 448 Kbps
    Channel(s) : 6 channels
    Channel positions : Front: L C R, Side: L R, LFE
    Sampling rate : 48.0 KHz
    Bit depth : 16 bits
    Compression mode : Lossy
    Stream size : 348 MiB (7%)
    Language : Russian
    Default : No
    Forced : No

  • Audio #3
    ID : 3
    Format : DTS
    Format/Info : Digital Theater Systems
    Mode : 16
    Format settings, Endianness : Big
    Codec ID : A_DTS
    Duration : 1h 48mn
    Bit rate mode : Constant
    Bit rate : 1 509 Kbps
    Channel(s) : 6 channels
    Channel positions : Front: L C R, Side: L R, LFE
    Sampling rate : 48.0 KHz
    Bit depth : 24 bits
    Compression mode : Lossy
    Stream size : 1.15 GiB (24%)
    Title : dts 5.1 1536kbps
    Language : English
    Default : No
    Forced : No

  • Text #4
    ID : 4
    Format : UTF-8
    Codec ID : S_TEXT/UTF8
    Codec ID/Info : UTF-8 Plain Text
    Title : English (Full)
    Language : English
    Default : No
    Forced : No

  • Text #5
    ID : 5
    Format : UTF-8
    Codec ID : S_TEXT/UTF8
    Codec ID/Info : UTF-8 Plain Text
    Title : English (SDH)
    Language : English
    Default : No
    Forced : No

  • Text #6
    ID : 6
    Format : UTF-8
    Codec ID : S_TEXT/UTF8
    Codec ID/Info : UTF-8 Plain Text
    Title : English (SDH Colored)
    Language : English
    Default : No
    Forced : No

  • Text #7
    ID : 7
    Format : UTF-8
    Codec ID : S_TEXT/UTF8
    Codec ID/Info : UTF-8 Plain Text
    Title : Spanish (Full)
    Language : Spanish
    Default : No
    Forced : No
Свернуть



Скриншоты
Изображение

Изображение

Изображение

Изображение

Изображение

Изображение

Изображение

Изображение

Изображение

Изображение
Свернуть


Приятного просмотра!

Не забываем говорить спасибо, т.к. вам не сложно, а мне приятно! :)


_________________
Вообще стало не совпадать: как хочется поступить и как правильно поступить. А хочется, чтобы было как правильно, но хочется, чтобы было, как хочется… И, что делать?!
Не в сети
Профиль  
Начать новую темуОтветить на тему  [ 1 сообщение ] 
Вы не можете начинать темы
Вы не можете отвечать на сообщения
Вы не можете редактировать свои сообщения
Вы не можете удалять свои сообщения