Правила форума

  • В этом разделе создание новых тем Запрещено.
  • Для создания новых тем пользуйтесь Корневым разделом DVD и HD фильмы.
Начать новую темуОтветить на тему  [ Сообщений: 6 ] 
Торрент файл
Размер: 8.69 GB • Зарегистрирован: 5 лет 9 месяцев • Статус: Проверено
Скачан: 517 раз • Желающих скачать: 0 • Поблагодарили: 93 раза
 Раздают: 1  |  0 KB/s  ]   Качают: 0  |  0 KB/s  ] 
Сообщения
 Добавлено: 2011-02-22 23:34
Аватара пользователя
Стаж: 8 лет
Возраст: 23
Сообщений: 2472
Спасибок: 27962
Лайков: 2
Город воров

The Town

«Добро пожаловать в криминальную столицу Америки»

Изображение
Год выпуска: 2010
Страна: Изображение США
Жанр: триллер, драма, криминал
Продолжительность: 02:04:44
Перевод: Профессиональный (полное дублирование) [лицензия]

Режиссер: Бен Аффлек
Сценарий: Питер Крэйг, Бен Аффлек, Аарон Стокард, Чак Хоган
Продюсер: Бэзил Иваник, Грэм Кинг, Чай Картер, Дэвид Крокетт, Уильям Фэй
Оператор: Роберт Элсвит
Композитор: Дэвид Баккли, Гарри Грегсон-Уильямс
Изображение

В ролях: Бен Аффлек (Doug MacRay), Ребекка Холл (Claire Keesey), Джон Хэмм (FBI S.A. Adam Frawley), Джереми Реннер (James Coughlin), Блейк Лайвли (Krista Coughlin), Слэйн, Оуэн Бурк (Desmond Elden), Титус Уэлливер (Dino Ciampa), Пит Постлетуэйт, Крис Купер (Stephen MacRay), Дэннис МакЛафлин (Rusty), Корена Чейз (Agent Quinlan)
Дублёры: Всеволод Кузнецов (Doug MacRay), Ирина Киреева (Claire Keesey), Алексей Рязанцев (FBI S.A. Adam Frawley), Андрей Бархударов (James Coughlin), Татьяна Шитова (Krista Coughlin), Александр Коврижных, Антон Эльдаров (Desmond Elden), Игорь Тарадайкин (Dino Ciampa), Рудольф Панков, Борис Токарев (Stephen MacRay)
Изображение
Бюджет: $37 000 000
Сборы в США: $92 186 262
Сборы в России: $1 937 365
Сборы в мире: $144 243 225
Мировая премьера: 8 сентября 2010
Изображение Релиз на DVD: 24 февраля 2011, «CP-Digital»
Изображение

Описание: Профессиональный вор Даг влюбляется в Клэр - работницу банка, которая переживает не лучшие времена. Девушка ничего не знает о преступной жизни Дага, зато о ней догадывается детектив, чье расследование может поставить крест на отношениях Дага и Клэр.
Изображение Изображение
MPAA: Изображение - Лицам до 17 лет обязательно присутствие взрослого

Изображение
Релиз группы: Изображение
Изображение
Качество: BDRip 1080p R5
Формат: Matroska
Видео: AVC; 1920x800 (2.40:1); 8083 Kbps; 23,976 fps; 0,226 bpp
Аудио №1: Russian; AC3; 384 Kbps; CBR; 6 ch
Аудио №2: English; DTS; 1509 Kbps; CBR; 6 ch; 24 bit
Субтитры: Russian [Full], Russian [Forced], English
Изображение

Знаете ли Вы, что...
  • Поставлялся в кинотеатры под кодовым названием «Сriminal intent» («Преступный умысел»).
  • Чтобы вжиться в образ, Джереми Реннер общался с осуждёнными за ограбления преступниками родом из Чарльстауна. От них он, в частности, перенял специфический акцент.
  • Свой режиссёрский дебют – драму «Прощай, детка, прощай» – Бен Аффлек также снимал в Бостоне.
  • Все полицейские машины, показанные в фильме, относятся к вымышленному отделу A-8.
Свернуть
BDInfo

General
Complete name : DEOSS77 | Gorod.vorov.2010.D.BDRip.1080p.[uniongang.tv]
Format : Matroska
File size : 8.69 GiB
Duration : 2h 4mn
Overall bit rate : 9 976 Kbps
Movie name : --SCHUMAHER--
Encoded date : UTC 2011-02-22 18:25:57
Writing application : mkvmerge v3.4.0 ('Rapunzel') сборка от May 15 2010 09:38:20
Writing library : libebml v0.8.0 + libmatroska v0.9.0

Video
ID : 1
Format : AVC
Format/Info : Advanced Video Codec
Format profile : High@L4.1
Format settings, CABAC : Yes
Format settings, ReFrames : 5 frames
Muxing mode : Container profile=Unknown@4.1
Codec ID : V_MPEG4/ISO/AVC
Duration : 2h 4mn
Bit rate : 8 083 Kbps
Width : 1 920 pixels
Height : 800 pixels
Display aspect ratio : 2.40:1
Frame rate : 23.976 fps
Color space : YUV
Chroma subsampling : 4:2:0
Bit depth : 8 bits
Scan type : Progressive
Bits/(Pixel*Frame) : 0.219
Stream size : 6.87 GiB (79%)
Writing library : x264 core 110 r1820 fdcf2ae
Encoding settings : cabac=1 / ref=5 / deblock=1:0:0 / analyse=0x3:0x133 / me=umh / subme=7 / psy=1 / psy_rd=1.00:0.00 / mixed_ref=1 / me_range=16 / chroma_me=1 / trellis=1 / 8x8dct=1 / cqm=0 / deadzone=21,11 / fast_pskip=1 / chroma_qp_offset=-2 / threads=12 / sliced_threads=0 / nr=0 / decimate=1 / interlaced=0 / constrained_intra=0 / bframes=3 / b_pyramid=2 / b_adapt=2 / b_bias=0 / direct=3 / weightb=1 / open_gop=0 / weightp=2 / keyint=250 / keyint_min=23 / scenecut=40 / intra_refresh=0 / rc=2pass / mbtree=0 / bitrate=8083 / ratetol=1.0 / qcomp=0.60 / qpmin=0 / qpmax=51 / qpstep=4 / cplxblur=20.0 / qblur=0.5 / ip_ratio=1.40 / pb_ratio=1.30 / aq=1:1.00

Audio #1
ID : 2
Format : AC-3
Format/Info : Audio Coding 3
Mode extension : CM (complete main)
Codec ID : A_AC3
Duration : 2h 4mn
Bit rate mode : Constant
Bit rate : 384 Kbps
Channel(s) : 6 channels
Channel positions : Front: L C R, Side: L R, LFE
Sampling rate : 48.0 KHz
Bit depth : 16 bits
Stream size : 343 MiB (4%)
Language : Russian

Audio #2
ID : 3
Format : DTS
Format/Info : Digital Theater Systems
Codec ID : A_DTS
Duration : 2h 4mn
Bit rate mode : Constant
Bit rate : 1 510 Kbps
Channel(s) : 6 channels
Channel positions : Front: L C R, Side: L R, LFE
Sampling rate : 48.0 KHz
Bit depth : 24 bits
Video delay : 11ms
Stream size : 1.32 GiB (15%)
Language : English

Text #1
ID : 4
Format : UTF-8
Codec ID : S_TEXT/UTF8
Codec ID/Info : UTF-8 Plain Text
Title : Full
Language : Russian

Text #2
ID : 5
Format : UTF-8
Codec ID : S_TEXT/UTF8
Codec ID/Info : UTF-8 Plain Text
Title : Forced
Language : Russian

Text #3
ID : 6
Format : ASS
Codec ID : S_TEXT/ASS
Codec ID/Info : Advanced Sub Station Alpha
Language : English
Свернуть
Скриншоты

Изображение
Изображение
Изображение
Свернуть
_________________
Изображение

Изображение
Не в сети
Профиль  
 Добавлено: 2011-03-09 22:08 (спустя 14 дней)
Top-seeder
Аватара пользователя
Стаж: 8 лет 1 месяц
Возраст: 36
Сообщений: 178
Спасибок: 132
Классный фильм!Смотреть всем!Помогаю раздать.
Не в сети
Профиль  
 Добавлено: 2011-06-16 23:48 (спустя 3 месяца 7 дней)
Аватара пользователя
Стаж: 6 лет 6 месяцев
Возраст: 26
Сообщений: 26
просто ахирительный фильм качайте не пожалеете!!!!!
Не в сети
Профиль  
 Добавлено: 2013-03-22 21:31 (спустя 1 год 9 месяцев)
Аватара пользователя
Стаж: 7 лет 4 месяца
Возраст: 36
Сообщений: 114
Спасибок: 43
Лайков: 1
Люблю такие комментарии. Значит обязательно скачаю и посмотрю.
Не в сети
Профиль  
 Добавлено: 2013-03-23 01:50 (спустя 4 часа)
Аватара пользователя
Стаж: 8 лет 9 месяцев
Сообщений: 1170
Спасибок: 1294
Лайков: 7
фильм улет! а уж кто сохнет по ограблениям, интригам... обязателен к просмотру!
Не в сети
Профиль  
 Добавлено: 2014-10-22 20:04 (спустя 1 год 6 месяцев)
Аватара пользователя
Стаж: 8 лет 5 месяцев
Сообщений: 533
Лайков: 3
Фильм очень классный. Советую смотреть.
Не в сети
Профиль  
Начать новую темуОтветить на тему  [ Сообщений: 6 ] 
Вы не можете начинать темы
Вы не можете отвечать на сообщения
Вы не можете редактировать свои сообщения
Вы не можете удалять свои сообщения