Правила форума

  • В этом разделе создание новых тем Запрещено.
  • Для создания новых тем пользуйтесь Корневым разделом DVD и HD фильмы.
Начать новую темуОтветить на тему  [ 1 сообщение ] 
Торрент файл
Размер: 8.13 GB • Зарегистрирован: 3 года 1 месяц • Статус: Проверено
Скачан: 3 раза • Желающих скачать: 0 • Поблагодарили: 1 раз
 Раздают: 0  |  0 KB/s  ]   Качают: 0  |  0 KB/s  ] 
 Полного источника не было 6 дней 
Сообщения
 Добавлено: 2013-10-18 21:11
Аватара пользователя
Стаж: 8 лет 6 месяцев
Возраст: 38
Сообщений: 40
Спасибок: 24
Городской охотник / Sing si lip yan / City Hunter

Изображение


Год выпуска: 1993
Страна: Гоконг, Япония
Жанр: Боевик, комедия
Продолжительность: 01:34:45

Перевод: Профессиональный (многоголосый закадровый) + Авторский одноголосый (Карцев) + Авторский одноголосый (Живов) + Оригинальная звуковая дорожка
Субтитры: китайские hardsub (неотключаемые)

Режиссёр: Жинг Вонг / Jing Wong
В ролях: Джеки Чан, Ричард Нортон, Майк Абботт , Гари Даниелс , Кумико Гото, Эрик Кот
Описание: Герой Джеки Чана — плейбой, полусыщик, полунаемник и целиком бабник. К нему обращается газетный магнат Имамура, у которого пропала дочь. Джеки пробирается на роскошный круизный лайнер, на котором разношерстная банда преступников держит свою жертву. Доступным лишь одному ему способом, Джеки удается изрядно подпортить путешествие этим подонкам и осободить прекраснейшую из женщин.
Рейтинг MPAA: Рейтинг PG-13 (Дети до 13 лет допускаются на фильм только с родителями)
Изображение 7.342 (4289)

Качество: HDTV 1080i
Формат: MKV
Видео кодек: MPEG4
Аудио кодек: AC3 (Dolby Digital)
Видео: MPEG4 Video (H264) 1920x1080 25.00fps 10.8 Mbps
Аудио #1: |RUS| Dolby AC3 48000Hz stereo 192 Kbps [Профессиональный (многоголосый закадровый)]
Аудио #2: |RUS| Dolby AC3 44100Hz stereo 448 Kbps [Авторский одноголосый (Карцев)]
Аудио #3: |RUS| Dolby AC3 48000Hz stereo 160 Kbps [Авторский одноголосый (Живов)]
Аудио #4: |ENG| Dolby AC3 48000Hz 5ch 448 Kbps [Оригинальная звуковая дорожка]
Субтитры: китайские hardsub (неотключаемые)

MediaInfo
Format : Matroska
Format version : Version 2
File size : 8.13 GiB
Duration : 1h 34mn
Overall bit rate : 12.3 Mbps
Movie name : Городской охотник / Sing si lip yan / City Hunter (1993) HDTV @ JOMA & nextDred
Encoded date : UTC 2012-08-10 09:28:57
Writing application : mkvmerge v5.3.0 ('I could have danced') built on Feb 9 2012 10:38:07
Writing library : libebml v1.2.3 + libmatroska v1.3.0

Video
ID : 1
Format : AVC
Format/Info : Advanced Video Codec
Format profile : Baseline@L4.1
Format settings, CABAC : No
Format settings, ReFrames : 1 frame
Codec ID : V_MPEG4/ISO/AVC
Duration : 1h 34mn
Bit rate : 10.8 Mbps
Width : 1 920 pixels
Height : 1 080 pixels
Display aspect ratio : 16:9
Frame rate mode : Variable
Frame rate : 25.000 fps
Color space : YUV
Chroma subsampling : 4:2:0
Bit depth : 8 bits
Scan type : Progressive
Bits/(Pixel*Frame) : 0.208
Stream size : 7.14 GiB (88%)
Default : Yes
Forced : No

Audio #1
ID : 2
Format : AC-3
Format/Info : Audio Coding 3
Mode extension : CM (complete main)
Codec ID : A_AC3
Duration : 1h 34mn
Bit rate mode : Constant
Bit rate : 192 Kbps
Channel(s) : 2 channels
Channel positions : Front: L R
Sampling rate : 48.0 KHz
Bit depth : 16 bits
Compression mode : Lossy
Stream size : 130 MiB (2%)
Title : MVO
Language : Russian
Default : Yes
Forced : Yes

Audio #2
ID : 3
Format : AC-3
Format/Info : Audio Coding 3
Mode extension : CM (complete main)
Codec ID : A_AC3
Duration : 1h 34mn
Bit rate mode : Constant
Bit rate : 448 Kbps
Channel(s) : 2 channels
Channel positions : Front: L R
Sampling rate : 44.1 KHz
Bit depth : 16 bits
Compression mode : Lossy
Stream size : 304 MiB (4%)
Title : AVO - Карцев
Language : Russian
Default : No
Forced : No

Audio #3
ID : 4
Format : AC-3
Format/Info : Audio Coding 3
Mode extension : CM (complete main)
Codec ID : A_AC3
Duration : 1h 34mn
Bit rate mode : Constant
Bit rate : 160 Kbps
Channel(s) : 2 channels
Channel positions : Front: L R
Sampling rate : 48.0 KHz
Bit depth : 16 bits
Compression mode : Lossy
Stream size : 108 MiB (1%)
Title : AVO - Живов
Language : Russian
Default : No
Forced : No

Audio #4
ID : 5
Format : AC-3
Format/Info : Audio Coding 3
Mode extension : CM (complete main)
Codec ID : A_AC3
Duration : 1h 34mn
Bit rate mode : Constant
Bit rate : 448 Kbps
Channel(s) : 5 channels
Channel positions : Front: L C R, Side: L R
Sampling rate : 48.0 KHz
Bit depth : 16 bits
Compression mode : Lossy
Stream size : 304 MiB (4%)
Language : English
Default : No
Forced : No
Свернуть

Скриншоты
Изображение
Изображение
Изображение
Изображение
Свернуть
Не в сети
Профиль  
Начать новую темуОтветить на тему  [ 1 сообщение ] 
Вы не можете начинать темы
Вы не можете отвечать на сообщения
Вы не можете редактировать свои сообщения
Вы не можете удалять свои сообщения