Правила форума

  • В этом разделе создание новых тем Запрещено.
  • Для создания новых тем пользуйтесь Корневым разделом DVD и HD фильмы.
Начать новую темуОтветить на тему  [ Сообщений: 2 ] 
Торрент файл
Размер: 11.49 GB • Зарегистрирован: 4 года • Статус: Проверено
Скачан: 54 раза • Желающих скачать: 0 • Поблагодарили: 39 раз
 Раздают: 0  |  0 KB/s  ]   Качают: 0  |  0 KB/s  ] 
 Полного источника не было 8 часов 
Сообщения
 Добавлено: 2012-11-29 22:13
Руководитель релиз-группы
Аватара пользователя
Стаж: 9 лет 1 месяц
Возраст: 28
Сообщений: 4244
Спасибок: 31994
Лайков: 32
Горячие головы. Дилогия / Hot Shots! Dilogy


Горячие головы / Hot Shots!
Изображение
Горячие головы / Hot Shots!


«Unprecendented! Uncut! Under 10 dollars!»


Год выпуска | 1991
Страна | США
Жанр | боевик ∙ комедия ∙ военный
Продолжительность | 01:21:14
Перевод | Профессиональный (двухголосый, закадровый) /НТВ+/ ∙ Профессиональный (многоголосый, закадровый) /ОРТ/ ∙ Профессиональный (двухголосый, закадровый) /Премьер-Видео/ ∙ Профессиональный (полное дублирование) /Киностудия им. Горького/ ∙ Профессиональный (двухголосый, закадровый) /Украинский/ ∙ Авторский (Живов Юрий) ∙ Авторский (Михалев Алексей) ∙ Оригинальный ∙ Субтитры (русские, украинские, английские)
Режиссер | Джим Абрахамс
Сценарий | Джим Абрахамс ∙ Пэт Профт
Продюсер | Билл Бадалато ∙ Джанет Грэхэм ∙ Стефен МакЭвети ∙ Грег Норберг ∙ Пэт Профт
Оператор | Билл Батлер
Композитор | Сильвестр Левай

В ролях | Чарли Шин (Lt. Topper Harley) ∙ Кэри Элвис (Lt. Kent Gregory) ∙ Валерия Голино (Ramada Thompson) ∙ Ллойд Бриджес (Adm. Thomas 'Tug' Benson) ∙ Кевин Данн (Lt. Cmdr. James Block) ∙ Джон Крайер (Jim 'Wash Out' Pfaffenbach) ∙ Уильям О’Лири (Pete 'Dead Meat' Thompson) ∙ Кристи Суонсон (Kowalski) ∙ Ефрем Цимбалист мл. (Wilson) ∙ Билл Ирвин (Buzz Harley) ∙ Хэйди Свидберг (Mary Thompson) ∙ Брюс А. Янг ('Red' Herring) и др.
Дублёры | Андрей Гриневич (Lt. Topper Harley) ∙ Борис Токарев (Lt. Kent Gregory) ∙ Ольга Гаспарова (Ramada Thompson) ∙ Игорь Ясулович (Adm. Thomas 'Tug' Benson) ∙ Юрий Саранцев (Lt. Cmdr. James Block) ∙ Дмитрий Матвеев (Pete 'Dead Meat' Thompson) ∙ Олег Голубицкий (Kowalski) и др.
Описание | Анекдотичные ситуации на военной базе, где герои, сами того не замечая, пародируют самые известные фильмы, заставят вас безудержно хохотать на протяжении всего фильма. Их горячие головы производят такое количество несуразных идей, что находиться рядом с ними просто опасно для здоровья.
Релиз | ИзображениеРаздача | Изображение

kinopoisk.ru | 7.681 (10 745)
Бюджет | $26 000 000
Сборы в США | $69 467 617
Сборы в мире | $181 096 164
Мировая премьера | 31 июля 1991
Релиз на DVD | 5 февраля 2009 ∙ «Двадцатый Век Фокс СНГ»
Знаете ли Вы, что...
  • В титрах написано несколько кулинарных рецептов.
  • Реактивные самолеты, задействованные в съемках - британские легкие истребители Folland Gnat. Они никогда не состояли на вооружении Американских вооруженных сил. Иракские перехватчики и двухместный истребитель в начале фильма изображены самолетами F-5 «Фридом Файтер».
  • В сериале «Два с половиной человека» играет Чарли Шин и его имя Чарли Харпер, фамилия Харпер - комбинация имени Топер Харли из Горячих голов.
  • Также в сериале «Два с половиной человека» в роли Алана Харпера снимается Джон Крайер - «Отстой» из Горячих голов. А Раян Стилс - пилот Мелман Ферман в горячих головах в «Два с половиной человека» играет Доктора Херба Мельника.
  • В одном из эпизодов пародируется фильм Рокки.
Свернуть

Качество | HDTV 720p
Контейнер | Matroska
Видео | AVC ∙ 1280x694 ∙ 7651 kbps ∙ 25 fps ∙ 0.345 bit/pixel
Аудио #1 | AC3 ∙ 384 kbps ∙ CBR ∙ 2 channels ∙ 16 bit /DVO/
Аудио #2 | AC3 ∙ 384 kbps ∙ CBR ∙ 2 channels ∙ 16 bit /MVO/
Аудио #3 | AC3 ∙ 192 kbps ∙ CBR ∙ 2 channels ∙ 16 bit /DVO/
Аудио #4 | AC3 ∙ 128 kbps ∙ CBR ∙ 2 channels ∙ 16 bit /DUB/
Аудио #5 | AC3 ∙ 192 kbps ∙ CBR ∙ 2 channels ∙ 16 bit /DVO UKR/
Аудио #6 | AC3 ∙ 192 kbps ∙ CBR ∙ 2 channels ∙ 16 bit /AVO/
Аудио #7 | AC3 ∙ 384 kbps ∙ CBR ∙ 2 channels ∙ 16 bit /AVO/
Аудио #8 | AC3 ∙ 384 kbps ∙ CBR ∙ 2 channels ∙ 16 bit /ENG/

MediaInfo
General
Unique ID : 226972466077327523664920430957097216182 (0xAAC14E90CCD313558D456CA7194D68B6)
Complete name : D:\Hot.Shots.Dilogy.HDTV.720p\Hot.Shots.1991.HDTV.720p.mkv
Format : Matroska
Format version : Version 2
File size : 5.73 GiB
Duration : 1h 21mn
Overall bit rate : 10.1 Mbps
Movie name : Hot Shots! (1991) - Release for HDCLUB
Encoded date : UTC 2012-11-28 10:35:21
Writing application : mkvmerge v5.5.0 ('Healer') built on Apr 24 2012 23:47:03
Writing library : libebml v1.2.3 + libmatroska v1.3.0

Video
ID : 1
Format : AVC
Format/Info : Advanced Video Codec
Format profile : High@L4.1
Format settings, CABAC : Yes
Format settings, ReFrames : 6 frames
Codec ID : V_MPEG4/ISO/AVC
Duration : 1h 21mn
Bit rate : 7 651 Kbps
Width : 1 280 pixels
Height : 694 pixels
Display aspect ratio : 16:9
Frame rate : 25.000 fps
Color space : YUV
Chroma subsampling : 4:2:0
Bit depth : 8 bits
Scan type : Progressive
Bits/(Pixel*Frame) : 0.345
Stream size : 4.34 GiB (76%)
Title : Release for HDCLUB
Writing library : x264 core 124 r2197 69a0443
Encoding settings : cabac=1 / ref=6 / deblock=1:-3:-3 / analyse=0x3:0x113 / me=umh / subme=9 / psy=1 / psy_rd=1.00:0.00 / mixed_ref=1 / me_range=24 / chroma_me=1 / trellis=1 / 8x8dct=1 / cqm=0 / deadzone=21,11 / fast_pskip=0 / chroma_qp_offset=-2 / threads=6 / sliced_threads=0 / nr=0 / decimate=0 / interlaced=0 / bluray_compat=0 / constrained_intra=0 / bframes=8 / b_pyramid=2 / b_adapt=2 / b_bias=0 / direct=1 / weightb=1 / open_gop=0 / weightp=2 / keyint=250 / keyint_min=25 / scenecut=40 / intra_refresh=0 / rc=crf / mbtree=0 / crf=20.5 / qcomp=0.60 / qpmin=0 / qpmax=69 / qpstep=4 / ip_ratio=1.40 / pb_ratio=1.30 / aq=1:1.00
Language : English
Default : Yes
Forced : No

Audio #1
ID : 2
Format : AC-3
Format/Info : Audio Coding 3
Mode extension : CM (complete main)
Codec ID : A_AC3
Duration : 1h 21mn
Bit rate mode : Constant
Bit rate : 384 Kbps
Channel(s) : 2 channels
Channel positions : Front: L R
Sampling rate : 48.0 KHz
Bit depth : 16 bits
Compression mode : Lossy
Stream size : 223 MiB (4%)
Title : Двухголосый, НТВ+
Language : Russian
Default : Yes
Forced : No

Audio #2
ID : 3
Format : AC-3
Format/Info : Audio Coding 3
Mode extension : CM (complete main)
Codec ID : A_AC3
Duration : 1h 21mn
Bit rate mode : Constant
Bit rate : 384 Kbps
Channel(s) : 2 channels
Channel positions : Front: L R
Sampling rate : 48.0 KHz
Bit depth : 16 bits
Compression mode : Lossy
Stream size : 223 MiB (4%)
Title : Многоголосый, ОРТ
Language : Russian
Default : No
Forced : No

Audio #3
ID : 4
Format : AC-3
Format/Info : Audio Coding 3
Mode extension : CM (complete main)
Codec ID : A_AC3
Duration : 1h 21mn
Bit rate mode : Constant
Bit rate : 192 Kbps
Channel(s) : 2 channels
Channel positions : Front: L R
Sampling rate : 48.0 KHz
Bit depth : 16 bits
Compression mode : Lossy
Stream size : 112 MiB (2%)
Title : Двухголосый, Премьер-видео
Language : Russian
Default : No
Forced : No

Audio #4
ID : 5
Format : AC-3
Format/Info : Audio Coding 3
Mode extension : CM (complete main)
Codec ID : A_AC3
Duration : 1h 21mn
Bit rate mode : Constant
Bit rate : 128 Kbps
Channel(s) : 2 channels
Channel positions : Front: L R
Sampling rate : 48.0 KHz
Bit depth : 16 bits
Compression mode : Lossy
Stream size : 74.4 MiB (1%)
Title : Дубляж, Киност.им.Горького
Language : Russian
Default : No
Forced : No

Audio #5
ID : 6
Format : AC-3
Format/Info : Audio Coding 3
Mode extension : CM (complete main)
Codec ID : A_AC3
Duration : 1h 21mn
Bit rate mode : Constant
Bit rate : 192 Kbps
Channel(s) : 2 channels
Channel positions : Front: L R
Sampling rate : 48.0 KHz
Bit depth : 16 bits
Compression mode : Lossy
Stream size : 112 MiB (2%)
Title : Двухголосый
Language : Ukrainian
Default : No
Forced : No

Audio #6
ID : 7
Format : AC-3
Format/Info : Audio Coding 3
Format profile : Dolby Digital
Mode extension : CM (complete main)
Codec ID : A_AC3
Duration : 1h 21mn
Bit rate mode : Constant
Bit rate : 192 Kbps
Channel(s) : 2 channels
Channel positions : Front: L R
Sampling rate : 48.0 KHz
Bit depth : 16 bits
Compression mode : Lossy
Stream size : 112 MiB (2%)
Title : Одноголосый, Михалев
Language : Russian
Default : No
Forced : No

Audio #7
ID : 8
Format : AC-3
Format/Info : Audio Coding 3
Mode extension : CM (complete main)
Codec ID : A_AC3
Duration : 1h 21mn
Bit rate mode : Constant
Bit rate : 384 Kbps
Channel(s) : 2 channels
Channel positions : Front: L R
Sampling rate : 48.0 KHz
Bit depth : 16 bits
Compression mode : Lossy
Stream size : 223 MiB (4%)
Title : Одноголосый, Живов
Language : Russian
Default : No
Forced : No

Audio #8
ID : 9
Format : AC-3
Format/Info : Audio Coding 3
Mode extension : CM (complete main)
Codec ID : A_AC3
Duration : 1h 21mn
Bit rate mode : Constant
Bit rate : 384 Kbps
Channel(s) : 2 channels
Channel positions : Front: L R
Sampling rate : 48.0 KHz
Bit depth : 16 bits
Compression mode : Lossy
Stream size : 223 MiB (4%)
Title : Оригинал
Language : English
Default : No
Forced : No

Text #1
ID : 10
Format : UTF-8
Codec ID : S_TEXT/UTF8
Codec ID/Info : UTF-8 Plain Text
Language : Russian
Default : No
Forced : No

Text #2
ID : 11
Format : UTF-8
Codec ID : S_TEXT/UTF8
Codec ID/Info : UTF-8 Plain Text
Language : Ukrainian
Default : No
Forced : No

Text #3
ID : 12
Format : UTF-8
Codec ID : S_TEXT/UTF8
Codec ID/Info : UTF-8 Plain Text
Language : English
Default : No
Forced : No
Свернуть

Скриншоты

Изображение

Изображение

Изображение
Свернуть
Свернуть

Горячие головы 2 / Hot Shots! Part Deux
Изображение
Горячие головы 2 / Hot Shots! Part Deux


«Grab your guns! It's Hot Shots Part Deux!»


Год выпуска | 1993
Страна | США
Жанр | боевик ∙ комедия ∙ военный
Продолжительность | 01:24:54
Перевод | Профессиональный (двухголосый, закадровый) /НТВ+/ ∙ Профессиональный (многоголосый, закадровый) /ОРТ/ ∙ Профессиональный (двухголосый, закадровый) /Премьер-Видео/ ∙ Профессиональный (полное дублирование) /Киностудия им. Горького/ ∙ Профессиональный (двухголосый, закадровый) /Украинский/ ∙ Авторский (Живов Юрий) ∙ Авторский (Горчаков Василий) ∙ Авторский (Михалев Алексей) ∙ Оригинальный ∙ Субтитры (русские, украинские, английские)
Режиссер | Джим Абрахамс
Сценарий | Джим Абрахамс ∙ Пэт Профт
Продюсер | Билл Бадалато ∙ Майкл МакМэнус ∙ Грег Норберг ∙ Пэт Профт
Оператор | Джон Р. Леонетти
Композитор | Бэзил Поледурис

В ролях | Чарли Шин (Topper Harley) ∙ Валерия Голино (Ramada Rodham Hayman) ∙ Ллойд Бриджес (President Thomas 'Tug' Benson) ∙ Ричард Кренна (Col. Denton Walters) ∙ Бренда Бакки (Michelle Rodham Huddleston) ∙ Мигель Феррер (Commander Arvid Harbinger) ∙ Роуэн Эткинсон (Dexter Hayman) ∙ Джерри Халева (Saddam Hussein) ∙ Дэвид Уол (Gerou) ∙ Митч Райан (Senator Gray Edwards) ∙ Майкл Коляр (Williams) ∙ Райан Стайлз (Rabinowitz) и др.
Дублёры | Андрей Гриневич (Topper Harley) ∙ Ольга Гаспарова (Ramada Rodham Hayman) ∙ Игорь Ясулович (President Thomas 'Tug' Benson) ∙ Ирина Савина ∙ Алексей Сафонов ∙ Владимир Ферапонтов ∙ Дмитрий Матвеев и др.
Описание | На этот раз пилот-ас Топпер Харли, покинув службу, живет в далеком тибетском монастыре, где он нашел гармонию внутри себя, сбалансировав свой Инь и Янь. Но стране снова нужен герой.
И он, с неохотой покидая полюбившихся ему монахов, возвращается на службу. Ему поручается секретное задание по спасению заложников из лап Саддама Хусейна. Но к всеобщей радости, Топпер - необычный человек, который все переворачивает с ног на голову.

Релиз | ИзображениеРаздача | Изображение

kinopoisk.ru | 7.623 (7 768)
Сборы в США | $38 922 972
Сборы в мире | $133 752 825
Мировая премьера | 21 мая 1993
Релиз на DVD | 9 апреля 2009 ∙ «Двадцатый Век Фокс СНГ»

Качество | HDTV 720p
Контейнер | Matroska
Видео | AVC ∙ 1280x694 ∙ 6900 kbps ∙ 25 fps ∙ 0.311 bit/pixel
Аудио #1 | AC3 ∙ 384 kbps ∙ CBR ∙ 2 channels ∙ 16 bit /DVO/
Аудио #2 | AC3 ∙ 384 kbps ∙ CBR ∙ 2 channels ∙ 16 bit /MVO/
Аудио #3 | AC3 ∙ 192 kbps ∙ CBR ∙ 2 channels ∙ 16 bit /DVO/
Аудио #4 | AC3 ∙ 128 kbps ∙ CBR ∙ 2 channels ∙ 16 bit /DUB/
Аудио #5 | AC3 ∙ 192 kbps ∙ CBR ∙ 2 channels ∙ 16 bit /DVO UKR/
Аудио #6 | AC3 ∙ 192 kbps ∙ CBR ∙ 2 channels ∙ 16 bit /AVO/
Аудио #7 | AC3 ∙ 384 kbps ∙ CBR ∙ 2 channels ∙ 16 bit /AVO/
Аудио #8 | AC3 ∙ 384 kbps ∙ CBR ∙ 2 channels ∙ 16 bit /AVO/
Аудио #9 | AC3 ∙ 384 kbps ∙ CBR ∙ 2 channels ∙ 16 bit /ENG/

MediaInfo
General
Unique ID : 177658125235780002988884659769094302373 (0x85A7B5D7E4D301D0B4F6AB59FB21EAA5)
Complete name : D:\Hot.Shots.Dilogy.HDTV.720p\Hot.Shots.Part.Deux.1993.HDTV.720p.mkv
Format : Matroska
Format version : Version 2
File size : 5.76 GiB
Duration : 1h 24mn
Overall bit rate : 9 717 Kbps
Movie name : Hot Shots! Part Deux (1993) - Release for HDCLUB
Encoded date : UTC 2012-11-28 10:25:08
Writing application : mkvmerge v5.5.0 ('Healer') built on Apr 24 2012 23:47:03
Writing library : libebml v1.2.3 + libmatroska v1.3.0

Video
ID : 1
Format : AVC
Format/Info : Advanced Video Codec
Format profile : High@L4.1
Format settings, CABAC : Yes
Format settings, ReFrames : 6 frames
Codec ID : V_MPEG4/ISO/AVC
Duration : 1h 24mn
Bit rate : 6 900 Kbps
Width : 1 280 pixels
Height : 694 pixels
Display aspect ratio : 16:9
Frame rate : 25.000 fps
Color space : YUV
Chroma subsampling : 4:2:0
Bit depth : 8 bits
Scan type : Progressive
Bits/(Pixel*Frame) : 0.311
Stream size : 4.09 GiB (71%)
Title : Release for HDCLUB
Writing library : x264 core 124 r2197 69a0443
Encoding settings : cabac=1 / ref=6 / deblock=1:-3:-3 / analyse=0x3:0x113 / me=umh / subme=9 / psy=1 / psy_rd=1.00:0.00 / mixed_ref=1 / me_range=24 / chroma_me=1 / trellis=1 / 8x8dct=1 / cqm=0 / deadzone=21,11 / fast_pskip=0 / chroma_qp_offset=-2 / threads=6 / sliced_threads=0 / nr=0 / decimate=0 / interlaced=0 / bluray_compat=0 / constrained_intra=0 / bframes=8 / b_pyramid=2 / b_adapt=2 / b_bias=0 / direct=1 / weightb=1 / open_gop=0 / weightp=2 / keyint=250 / keyint_min=25 / scenecut=40 / intra_refresh=0 / rc=crf / mbtree=0 / crf=20.5 / qcomp=0.60 / qpmin=0 / qpmax=69 / qpstep=4 / ip_ratio=1.40 / pb_ratio=1.30 / aq=1:1.00
Language : English
Default : Yes
Forced : No

Audio #1
ID : 2
Format : AC-3
Format/Info : Audio Coding 3
Mode extension : CM (complete main)
Codec ID : A_AC3
Duration : 1h 24mn
Bit rate mode : Constant
Bit rate : 384 Kbps
Channel(s) : 2 channels
Channel positions : Front: L R
Sampling rate : 48.0 KHz
Bit depth : 16 bits
Compression mode : Lossy
Stream size : 233 MiB (4%)
Title : Двухголосый, НТВ+
Language : Russian
Default : Yes
Forced : No

Audio #2
ID : 3
Format : AC-3
Format/Info : Audio Coding 3
Mode extension : CM (complete main)
Codec ID : A_AC3
Duration : 1h 24mn
Bit rate mode : Constant
Bit rate : 384 Kbps
Channel(s) : 2 channels
Channel positions : Front: L R
Sampling rate : 48.0 KHz
Bit depth : 16 bits
Compression mode : Lossy
Stream size : 233 MiB (4%)
Title : Многоголосый, ОРТ
Language : Russian
Default : No
Forced : No

Audio #3
ID : 4
Format : AC-3
Format/Info : Audio Coding 3
Mode extension : CM (complete main)
Codec ID : A_AC3
Duration : 1h 24mn
Bit rate mode : Constant
Bit rate : 192 Kbps
Channel(s) : 2 channels
Channel positions : Front: L R
Sampling rate : 48.0 KHz
Bit depth : 16 bits
Compression mode : Lossy
Stream size : 117 MiB (2%)
Title : Двухголосый, Премьер-видео
Language : Russian
Default : No
Forced : No

Audio #4
ID : 5
Format : AC-3
Format/Info : Audio Coding 3
Mode extension : CM (complete main)
Codec ID : A_AC3
Duration : 1h 24mn
Bit rate mode : Constant
Bit rate : 128 Kbps
Channel(s) : 2 channels
Channel positions : Front: L R
Sampling rate : 48.0 KHz
Bit depth : 16 bits
Compression mode : Lossy
Stream size : 77.7 MiB (1%)
Title : Дубляж, Киност.им.Горького
Language : Russian
Default : No
Forced : No

Audio #5
ID : 6
Format : AC-3
Format/Info : Audio Coding 3
Mode extension : CM (complete main)
Codec ID : A_AC3
Duration : 1h 24mn
Bit rate mode : Constant
Bit rate : 192 Kbps
Channel(s) : 2 channels
Channel positions : Front: L R
Sampling rate : 48.0 KHz
Bit depth : 16 bits
Compression mode : Lossy
Stream size : 117 MiB (2%)
Title : Двухголосый
Language : Ukrainian
Default : No
Forced : No

Audio #6
ID : 7
Format : AC-3
Format/Info : Audio Coding 3
Format profile : Dolby Digital
Mode extension : CM (complete main)
Codec ID : A_AC3
Duration : 1h 24mn
Bit rate mode : Constant
Bit rate : 192 Kbps
Channel(s) : 2 channels
Channel positions : Front: L R
Sampling rate : 48.0 KHz
Bit depth : 16 bits
Compression mode : Lossy
Stream size : 117 MiB (2%)
Title : Одноголосый, Михалев
Language : Russian
Default : No
Forced : No

Audio #7
ID : 8
Format : AC-3
Format/Info : Audio Coding 3
Mode extension : CM (complete main)
Codec ID : A_AC3
Duration : 1h 24mn
Bit rate mode : Constant
Bit rate : 384 Kbps
Channel(s) : 2 channels
Channel positions : Front: L R
Sampling rate : 48.0 KHz
Bit depth : 16 bits
Compression mode : Lossy
Stream size : 233 MiB (4%)
Title : Одноголосый, Живов
Language : Russian
Default : No
Forced : No

Audio #8
ID : 9
Format : AC-3
Format/Info : Audio Coding 3
Mode extension : CM (complete main)
Codec ID : A_AC3
Duration : 1h 24mn
Bit rate mode : Constant
Bit rate : 384 Kbps
Channel(s) : 2 channels
Channel positions : Front: L R
Sampling rate : 48.0 KHz
Bit depth : 16 bits
Compression mode : Lossy
Stream size : 233 MiB (4%)
Title : Одноголосый, Горчаков
Language : Russian
Default : No
Forced : No

Audio #9
ID : 10
Format : AC-3
Format/Info : Audio Coding 3
Mode extension : CM (complete main)
Codec ID : A_AC3
Duration : 1h 24mn
Bit rate mode : Constant
Bit rate : 384 Kbps
Channel(s) : 2 channels
Channel positions : Front: L R
Sampling rate : 48.0 KHz
Bit depth : 16 bits
Compression mode : Lossy
Stream size : 233 MiB (4%)
Title : Оригинал
Language : Russian
Default : No
Forced : No

Text #1
ID : 11
Format : UTF-8
Codec ID : S_TEXT/UTF8
Codec ID/Info : UTF-8 Plain Text
Language : Russian
Default : No
Forced : No

Text #2
ID : 12
Format : UTF-8
Codec ID : S_TEXT/UTF8
Codec ID/Info : UTF-8 Plain Text
Language : Ukrainian
Default : No
Forced : No

Text #3
ID : 13
Format : UTF-8
Codec ID : S_TEXT/UTF8
Codec ID/Info : UTF-8 Plain Text
Language : English
Default : No
Forced : No
Свернуть

Скриншоты

Изображение

Изображение

Изображение
Свернуть
Свернуть
_________________
«you failed because you had the wrong dream...»
Не в сети
Профиль  
 Добавлено: 2012-11-29 23:53 (спустя 1 час 40 минут)
Аватара пользователя
Стаж: 7 лет 2 месяца
Сообщений: 7167
Спасибок: 82011
Лайков: 2438
Отпадные пародии, смотрел безчисленное колличество раз, спс.
Не в сети
Профиль  
Начать новую темуОтветить на тему  [ Сообщений: 2 ] 
Вы не можете начинать темы
Вы не можете отвечать на сообщения
Вы не можете редактировать свои сообщения
Вы не можете удалять свои сообщения