Правила форума

  • В этом разделе создание новых тем Запрещено.
  • Для создания новых тем пользуйтесь Корневым разделом DVD и HD фильмы.
Начать новую темуОтветить на тему  [ Сообщений: 5 ] 
Торрент файл
Размер: 9.37 GB • Зарегистрирован: 4 года 10 месяцев • Статус: Проверено
Скачан: 229 раз • Желающих скачать: 0 • Поблагодарили: 50 раз
 Раздают: 1  |  0 KB/s  ]   Качают: 0  |  0 KB/s  ] 
Сообщения
 Добавлено: 2012-01-27 22:44
Руководитель релиз-группы
Аватара пользователя
Стаж: 9 лет 1 месяц
Возраст: 28
Сообщений: 4244
Спасибок: 31995
Лайков: 32
Изображение
Господин Никто / Mr. Nobody


«Всё возможно, пока не сделан выбор.»

Год выпуска | 2009
Страна | Германия ∙ Канада ∙ Франция ∙ Бельгия
Жанр | фантастика ∙ фэнтези ∙ драма ∙ мелодрама
Продолжительность | 02:35:40
Перевод | Профессиональный (двухголосый, закадровый) /Blu-Ray, CP-Digital/ ∙ Оригинальный ∙ Субтитры (русские, английские)


Режиссер | Жако Ван Дормель
Сценарий | Жако Ван Дормель
Продюсер | Филипп Годо ∙ Жан-Ив Асселин ∙ Дэниэл Марке ∙ Марко Мелиц ∙ Оливье Росен
Оператор | Кристоф Бьекарн
Композитор | Пьер Ван Дормель

В ролях | Джаред Лето (Nemo Adult / Old Nemo) ∙ Сара Полли (Elise Adult) ∙ Дайан Крюгер (Anna Adult) ∙ Лин Дэн Пэм (Jean Adult, (as Linh-Dan Pham)) ∙ Рис Иванс (Father Nemo) ∙ Наташа Литтл (Mother Nemo) ∙ Тоби Регбо (Nemo age 15) ∙ Джуно Темпл (Anna age 15) ∙ Клер Стоун (Elise age 15) ∙ Томас Бирн (Nemo age 9) ∙ Одри Джакомини (Jean age 15) ∙ Лаура Брюмань (Anna age 9)


Описание | Проснувшийся немощным стариком Немо Никто оказывается последним смертным в гротескном будущем. Все люди уже давно бессмертны и с удовольствием наблюдают за телешоу, где главная звезда - дряхлый и безумный старик Немо, доживающий свои последние дни. Накануне конца к нему приходит журналист, и Немо рассказывает ему свою историю перескакивая из одной жизни в другую, параллельную, несколько раз за рассказ успев умереть.


Релиз | ИзображениеРаздача | Изображение


kinopoisk.ru | 7.946 (49 837)


Бюджет | $47 000 000
Сборы в России | $613 426
Сборы в мире | $2 900 000
Мировая премьера | 12 сентября 2009
Релиз на DVD | 10 июня 2010 ∙ «CP-Digital»
Релиз на Blu-ray | 27 января 2011 ∙ «CP-Digital»


Знаете ли Вы, что...
  • Голос 118-летнего старика также принадлежит Джареду Лето без использования компьютерных технологий.
  • Роль Анны могла достаться Еве Грин.
  • Саундтрек к фильму стал последней работой в кино известного бельгийского музыканта и композитора Пьера Ван Дормеля (родного брата режиссёра), скончавшегося от рака 3 сентября 2008 года.
  • В роли ангелов в одной из сцен снялись дочери Ван Дормеля.
  • Этап подготовки к съёмке длился год, этап пост-продакшена занял пятнадцать месяцев.
  • В фильме представлена сцена камео режиссёра — безработный бразилец, варивший куриное яйцо.
  • «Немо» в переводе с латинского означает «Никто». Этим именем Одиссей представился Циклопу.
Свернуть


Качество | BDRip 720p
Формат | Matroska
Видео | AVC ∙ 1280x546 ∙ 5421 kbps ∙ 24 fps ∙ 0.323 bit/pixel
Аудио #1 | Russian ∙ DTS ∙ 1509 kbps ∙ CBR ∙ 6 channels ∙ 24 bit
Аудио #2 | English ∙ DTS ∙ 1509 kbps ∙ CBR ∙ 6 channels ∙ 24 bit

MediaInfo
General
Unique ID : 235950007901060433859279920966061262434 (0xB182518D1DA2E3AEAD772D64F0700662)
Complete name : J:\films\Mr.Nobody.Extended.2009.BDRip.720p[R.G.KiNOvNiNO].mkv
Format : Matroska
File size : 9.37 GiB
Duration : 2h 35mn
Overall bit rate : 8 613 Kbps
Movie name : Mr. Nobody (2009) - Release for HDCLUB
Encoded date : UTC 2011-02-14 19:07:58
Writing application : mkvmerge v3.3.0 ('Language') built on Mar 24 2010 14:59:24
Writing library : libebml v0.8.0 + libmatroska v0.9.0

Video
ID : 1
Format : AVC
Format/Info : Advanced Video Codec
Format profile : High@L4.1
Format settings, CABAC : Yes
Format settings, ReFrames : 11 frames
Codec ID : V_MPEG4/ISO/AVC
Duration : 2h 35mn
Bit rate : 5 422 Kbps
Width : 1 280 pixels
Height : 546 pixels
Display aspect ratio : 2.35:1
Frame rate : 24.000 fps
Color space : YUV
Chroma subsampling : 4:2:0
Bit depth : 8 bits
Scan type : Progressive
Bits/(Pixel*Frame) : 0.323
Stream size : 5.90 GiB (63%)
Title : Release for HDCLUB
Writing library : x264 core 108 r1788 c764e29
Encoding settings : cabac=1 / ref=11 / deblock=1:-3:-3 / analyse=0x3:0x133 / me=umh / subme=10 / psy=1 / psy_rd=1.00:0.00 / mixed_ref=1 / me_range=48 / chroma_me=1 / trellis=2 / 8x8dct=1 / cqm=0 / deadzone=21,11 / fast_pskip=0 / chroma_qp_offset=-2 / threads=12 / sliced_threads=0 / nr=0 / decimate=0 / interlaced=0 / constrained_intra=0 / bframes=7 / b_pyramid=2 / b_adapt=2 / b_bias=0 / direct=1 / weightb=1 / open_gop=0 / weightp=2 / keyint=250 / keyint_min=24 / scenecut=40 / intra_refresh=0 / rc_lookahead=40 / rc=crf / mbtree=0 / crf=17.0 / qcomp=0.60 / qpmin=10 / qpmax=51 / qpstep=4 / vbv_maxrate=50000 / vbv_bufsize=62500 / crf_max=0.0 / ip_ratio=1.40 / pb_ratio=1.30 / aq=1:0.80 / nal_hrd=none
Language : English

Audio #1
ID : 2
Format : DTS
Format/Info : Digital Theater Systems
Codec ID : A_DTS
Duration : 2h 35mn
Bit rate mode : Constant
Bit rate : 1 510 Kbps
Channel(s) : 6 channels
Channel positions : Front: L C R, Side: L R, LFE
Sampling rate : 48.0 KHz
Bit depth : 24 bits
Compression mode : Lossy
Stream size : 1.64 GiB (18%)
Title : DTS 5.1 1536 Kbps [Двухголосый, CP-Digital]
Language : Russian

Audio #2
ID : 3
Format : DTS
Format/Info : Digital Theater Systems
Codec ID : A_DTS
Duration : 2h 35mn
Bit rate mode : Constant
Bit rate : 1 510 Kbps
Channel(s) : 6 channels
Channel positions : Front: L C R, Side: L R, LFE
Sampling rate : 48.0 KHz
Bit depth : 24 bits
Compression mode : Lossy
Stream size : 1.64 GiB (18%)
Title : DTS 5.1 1536 Kbps [Оригинал]
Language : English

Text #1
ID : 4
Format : UTF-8
Codec ID : S_TEXT/UTF8
Codec ID/Info : UTF-8 Plain Text
Language : Russian

Text #2
ID : 5
Format : UTF-8
Codec ID : S_TEXT/UTF8
Codec ID/Info : UTF-8 Plain Text
Language : English

Menu
00:00:00.000 : en:00:00:00.000
00:12:09.792 : en:00:12:09.792
00:20:46.250 : en:00:20:46.250
00:30:49.958 : en:00:30:49.958
00:40:18.417 : en:00:40:18.417
00:49:55.500 : en:00:49:55.500
01:01:53.000 : en:01:01:53.000
01:13:34.500 : en:01:13:34.500
01:22:29.625 : en:01:22:29.625
01:32:50.333 : en:01:32:50.333
01:42:24.292 : en:01:42:24.292
01:52:39.833 : en:01:52:39.833
02:02:53.333 : en:02:02:53.333
02:10:27.167 : en:02:10:27.167
02:19:22.958 : en:02:19:22.958
02:29:09.292 : en:02:29:09.292
Свернуть


Скриншоты


Изображение


Изображение


Изображение


Свернуть
_________________
«you failed because you had the wrong dream...»
Не в сети
Профиль  
 Добавлено: 2012-05-28 20:10 (спустя 4 месяца)
Аватара пользователя
Стаж: 7 лет 6 месяцев
Возраст: 51
Сообщений: 1782
Лайков: 1402
Очень сложный фильм - по совокупности. И в то же время фильм вполне внятный, понятный, и интересный, без провисов в действии даже на пару минут, несмотря на чудовищно раздутый метраж.

Вот без дураков скажу, что это - самый интересный фильм, который я посмотрел за последний год. Хотя он был снят несколько раньше, в 2009 году, если не ошибаюсь.

Я пришел к своему мнению, а потом уже прочитал несколько рецензий на http://www.kinopoisk.ru/level/1/film/232785/ И, к удивлению своему, обнаружил, что проф. критики пришли к такой же оценке. Фильм - паззл. Очень сложный и сюжетно выверенный до последней буквы. Который сложится лишь тогда, когда последний кусочек встанет на свое место.

Если хотите узнать об этом фильме больше - читайте о нем по ссылке, которую я привел. Если хотите посмотреть и получить особое удовольствие киномана - смотрите сами. Если не хотите напрягаться - не смотрите. Решайте сами.

Актерская игра, операторская работа, сюжет, глубинные слои, желание пересмотреть еще раз - все на высшем уровне. Мнение критиков - зашкаливает. Фильм весьма непрост, но в то же время, повторюсь, он бесконечно мил, многослоен, смотрится без напряга, и доставляет истинное удовольствие, особенно если переплыть первую его треть.

Безусловный современный европейский шедевр. От меня - 10 из 10.
 ТАРДЫМ БАБАХ нравится это.
Не в сети
Профиль  
 Добавлено: 2012-05-31 16:46 (спустя 2 дня 20 часов)
Стаж: 8 лет 9 месяцев
Сообщений: 20
Спасибок: 6
Лайков: 1
согласен с предыдущим комментатором. фильм на десяточку.
Да и у меня с первого раза сложился паззл сюжетной линии, а вот глубинные слои открылись конечно не сразу. он из тех фильмов, которые хочется пересматривать хотя бы раз в полгода, открывая что-то новое какие-то новые фишки.
и не согласен насчёт "Напрягаться". фильм раскрывается послойно, но не напряжно ни разу. первый "слой" смыслов этого фильма подан в достаточно приятной и легкоусвояемой форме- простые жизненные вещи, волнующие, я думаю всех- любовь взаимоотношения с родителями, образ вероятного будущего, вопрос счастья. и все эти универсальные темы поданы через яркую картинку, приятную музыку и хорошую игру актёров, операторскую работу. одним словом- КРАСОТА! всем смотреть!:)
 Falconet нравится это.
Не в сети
Профиль  
 Добавлено: 2012-06-09 12:51 (спустя 8 дней)
Аватара пользователя
Стаж: 7 лет
Сообщений: 39
фильм действительно не на один раз...фильм интересен) не какая то голивудская херня под которую засыпаеш
Не в сети
Профиль  
 Добавлено: 2012-06-17 01:52 (спустя 7 дней)
Аватара пользователя
Стаж: 8 лет 10 месяцев
Сообщений: 66
Спасибок: 128
Бурные овации и апплодисменты фильму! :bra_vo: Доселе считал "Фонтан" вершиной мысли, но он заметно поблек после просмотра этого фильма.
Кстати, если кто-нибудь подскажет что-нибудь подобное с нелинейным сюжетом - буду весьма признателен)
Не в сети
Профиль  
Начать новую темуОтветить на тему  [ Сообщений: 5 ] 
Вы не можете начинать темы
Вы не можете отвечать на сообщения
Вы не можете редактировать свои сообщения
Вы не можете удалять свои сообщения