Правила форума

  • В этом разделе создание новых тем Запрещено.
  • Для создания новых тем пользуйтесь Корневым разделом DVD и HD фильмы.
Начать новую темуОтветить на тему  [ Сообщений: 3 ] 
Торрент файл
Размер: 37.33 GB • Зарегистрирован: 3 года 5 месяцев • Статус: Проверено
Скачан: 56 раз • Желающих скачать: 0 • Поблагодарили: 19 раз
 Раздают: 0  |  0 KB/s  ]   Качают: 0  |  0 KB/s  ] 
 Полного источника не было 7 месяцев 
Сообщения
 Добавлено: 2013-06-30 08:37
Top-releaser
Аватара пользователя
Стаж: 8 лет 7 месяцев
Сообщений: 1286
Спасибок: 3420
Лайков: 7
Изображение
Гостья
The Host


«You will be one of us.»

Год выпуска: 2013
Страна: США
Жанр: фантастика, драма, мелодрама
Продолжительность: 02:05:38
Перевод: Субтитры
Профессиональный (полное дублирование)



Режиссер: Эндрю Никкол
Сценарий: Эндрю Никкол, Стефани Майер
Продюсер: Стефани Майер, Пола Мэй Шварц, Стив Шварц, Ник Уэкслер, Рэй Анджелик
Оператор: Роберто Шэфер
Композитор: Антонио Пинто

В ролях: Сирша Ронан, Макс Айронс, Джейк Эйбел, Дайан Крюгер, Уильям Хёрт, Чандлер Кентербери, Фрэнсис Фишер, Скотт Лоуренс, Бойд Холбрук, Мустафа Харрис, Эмили Браунинг, Рэйчел Робертс и др.
Дублёры: Анастасия Жаркова, Сергей Смирнов, Михаил Тихонов, Полина Щербакова, Владимир Антоник, Даниил Трещов, Ирина Пономарева, Владислав Копп, Илья Исаев, Андрей Казанцев, Алексей Борзунов, Валентина Абрамова и др.


Описание: Земля - в опасности! Наше место скоро займут Души - лишенные плотской оболочки пришельцы, вытесняющие из человеческих тел разум и замещающие его разумом собственным. Большая часть человечества уже погибла. Немногие выжившие скрываются в жалкой попытке отсрочить неизбежное... Теперь Душа пытается захватить тело юной Мелани. Однако происходит неожиданное: Мелани и ее Душа вынуждены сосуществовать в одном теле. Гостье надлежало выследить и выдать землян-повстанцев, с которыми связана Мелани, но она помогает своей носительнице.


Релиз от: Изображение Релиз группа: Изображение



kinopoisk.ru: 6.321 (15 014)


Бюджет: $40 000 000
Сборы в США: $26 627 201
Сборы в России: $4 836 893
Сборы в мире: $58 191 884
Мировая премьера: 22 марта 2013


Знаете ли Вы, что...
  • Фильм снят по мотивам романа Стефани Майер «Гостья» (The Host, 2008).
  • Ева Грин, Хейли Этвелл и Клэр Дэйнс отказались от роли искателя.
  • Дианна Агрон пробовалась на роль Мелани Страйдер.
  • Кроме Джейка Эйбела, претендентами на роль Иена были Дэйн ДеХаан, Томас МакДонелл и Август Прю.
  • Кроме Макса Айронса, претендентами на роль Джареда были Шайло Фернандез, Лиам Хемсворт, Кит Харингтон, Джей Кортни и Уилсон Бетел.
Свернуть


Качество: Blu-ray
Контейнер: BDAV
Видео: AVC; 1920x1080 (16:9); 34542 kbps; 23,976 fps; 0,695 bit/pixel
Аудио №1: AC3; 448 kbps; CBR; 6 channels; 16 bit
Аудио №2: AC3; 192 kbps; CBR; 2 channels; 16 bit
Аудио №3: DTS-HD; 1575 kbps; VBR; 6 channels; 24 bit



Скриншоты

Изображение
Изображение
Изображение
Изображение
Изображение
Изображение

Свернуть

"Media Info"
General
ID : 0 (0x0)
Complete name : D:\Видео\T_HOST_BLUEBIRD\BDMV\STREAM\00023.m2ts
Format : BDAV
Format/Info : Blu-ray Video
File size : 33.6 GiB
Duration : 2h 5mn
Overall bit rate mode : Variable
Overall bit rate : 38.3 Mbps
Maximum Overall bit rate : 48.0 Mbps

Video
ID : 4113 (0x1011)
Menu ID : 1 (0x1)
Format : AVC
Format/Info : Advanced Video Codec
Format profile : High@L4.1
Format settings, CABAC : Yes
Format settings, ReFrames : 4 frames
Codec ID : 27
Duration : 2h 5mn
Bit rate mode : Variable
Bit rate : 34.5 Mbps
Maximum bit rate : 35.0 Mbps
Width : 1 920 pixels
Height : 1 080 pixels
Display aspect ratio : 16:9
Frame rate : 23.976 fps
Color space : YUV
Chroma subsampling : 4:2:0
Bit depth : 8 bits
Scan type : Progressive
Bits/(Pixel*Frame) : 0.695
Stream size : 30.3 GiB (90%)

Audio #1
ID : 4352 (0x1100)
Menu ID : 1 (0x1)
Format : AC-3
Format/Info : Audio Coding 3
Mode extension : CM (complete main)
Codec ID : 129
Duration : 2h 5mn
Bit rate mode : Constant
Bit rate : 448 Kbps
Channel(s) : 6 channels
Channel positions : Front: L C R, Side: L R, LFE
Sampling rate : 48.0 KHz
Bit depth : 16 bits
Compression mode : Lossy
Stream size : 403 MiB (1%)

Audio #2
ID : 4353 (0x1101)
Menu ID : 1 (0x1)
Format : AC-3
Format/Info : Audio Coding 3
Format profile : Dolby Digital
Mode extension : CM (complete main)
Codec ID : 129
Duration : 2h 5mn
Bit rate mode : Constant
Bit rate : 192 Kbps
Channel(s) : 2 channels
Channel positions : Front: L R
Sampling rate : 48.0 KHz
Bit depth : 16 bits
Compression mode : Lossy
Stream size : 173 MiB (1%)

Audio #3
ID : 4354 (0x1102)
Menu ID : 1 (0x1)
Format : DTS
Format/Info : Digital Theater Systems
Format profile : MA / Core
Muxing mode : Stream extension
Codec ID : 134
Duration : 2h 5mn
Bit rate mode : Variable
Bit rate : 1 576 Kbps / 1 510 Kbps
Channel(s) : 6 channels
Channel positions : Front: L C R, Side: L R, LFE
Sampling rate : 48.0 KHz
Bit depth : 24 bits
Compression mode : Lossless / Lossy


Свернуть





Последний раз редактировалось Shamman 2013-07-01 17:17, всего редактировалось 1 раз.
Не в сети
Профиль  
 Добавлено: 2013-06-30 23:01 (спустя 14 часов)
Аватара пользователя
Стаж: 5 лет 2 месяца
Сообщений: 111
Спасибок: 71
Лайков: 2
Режиссер хороший, посмотрим что снял.
_________________
Изображение
Изображение Avp1991
Не в сети
Профиль  
 Добавлено: 2013-07-20 14:30 (спустя 19 дней)
Аватара пользователя
Стаж: 7 лет
Возраст: 36
Сообщений: 374
Спасибок: 519
Лайков: 4

Shamman:

мелодрамаслова
Что это за жанр? :hi_hi_hi:


Тема поднималась пользователем Shamman 2013-07-20 14:30.
Не в сети
Профиль  
Начать новую темуОтветить на тему  [ Сообщений: 3 ] 
Вы не можете начинать темы
Вы не можете отвечать на сообщения
Вы не можете редактировать свои сообщения
Вы не можете удалять свои сообщения