Правила форума

  • В этом разделе создание новых тем Запрещено.
  • Для создания новых тем пользуйтесь Корневым разделом DVD и HD фильмы.
Начать новую темуОтветить на тему  [ Сообщений: 5 ] 
Торрент файл
Размер: 10.5 GB • Зарегистрирован: 3 года 5 месяцев • Статус: Проверено
Скачан: 290 раз • Желающих скачать: 0 • Поблагодарили: 69 раз
 Раздают: 0  |  0 KB/s  ]   Качают: 0  |  0 KB/s  ] 
 Полного источника не было 1 день 23 часа 
Сообщения
 Добавлено: 2013-07-02 13:22
Аватара пользователя
Стаж: 9 лет 1 месяц
Сообщений: 7932
Спасибок: 122150
Лайков: 1191
Гостья / The Host

«You will be one of us.»

Изображение


Год выпуска: 2013
Страна: Изображение США
Жанр: фантастика, драма, мелодрама
Продолжительность: 02:05:38
Субтитры: Английские
Перевод: Профессиональный (полное дублирование) [Лицензия]


Режиссер: Эндрю Никкол
Сценарий: Эндрю Никкол, Стефани Майер
Продюсер: Стефани Майер, Пола Мэй Шварц, Стив Шварц
Оператор: Роберто Шэфер
Композитор: Антонио Пинто

В ролях: Сирша Ронан, Макс Айронс, Джейк Абель, Дайан Крюгер, Уильям Херт, Чандлер Кентербери, Фрэнсис Фишер, Скотт Лоуренс, Бойд Холбрук, Мустафа Харрис, Эмили Браунинг

Описание: Земля — в опасности! Наше место скоро займут Души — лишенные плотской оболочки пришельцы, вытесняющие из человеческих тел разум и замещающие его разумом собственным. Большая часть человечества уже погибла. Немногие выжившие скрываются в жалкой попытке отсрочить неизбежное… Теперь Душа пытается захватить тело юной Мелани. Однако происходит неожиданное: Мелани и ее Душа вынуждены сосуществовать в одном теле. Гостье надлежало выследить и выдать землян-повстанцев, с которыми связана Мелани, но она помогает своей носительнице.

Изображение Изображение

Раздача группы: Изображение

Качество: BDRip (1080p)
Формат: Matroska
Видео: MPEG-4 AVC, 10 Мбит/с, 1920x800
Аудио №1: Русский (AC3, 48,0 КГц, 6 ch, 448 Кбит/c)
Аудио №2: Английский (DTS, 48,0 КГц, 6 ch, 1510 Кбит/c)

MediaInfo
Общее
Уникальный идентификатор : 212179351822821763979808404675489023785 (0x9FA041B8C542136D8783349E9C95C729)
Полное имя : C:\Фильмы\The.Host.2013. BDRip.1080p.R.G.Daredevil.mkv
Формат : Matroska
Версия формата : Version 4 / Version 2
Размер файла : 10,5 Гбайт
Продолжительность : 2 ч. 5 м.
Общий поток : 12,0 Мбит/сек
Дата кодирования : UTC 2013-06-28 18:23:22
Программа кодирования : mkvmerge v6.2.0 ('Promised Land') built on Apr 28 2013 12:22:01
Библиотека кодирования : libebml v1.3.0 + libmatroska v1.4.0

Видео
Идентификатор : 1
Формат : AVC
Формат/Информация : Advanced Video Codec
Профиль формата : High@L4.1
Параметр CABAC формата : Да
Параметр ReFrames формата : 5 кадров
Идентификатор кодека : V_MPEG4/ISO/AVC
Продолжительность : 2 ч. 5 м.
Битрейт : 10000 Кбит/сек
Ширина : 1920 пикселей
Высота : 800 пикселей
Соотношение сторон : 2,40:1
Режим частоты кадров : Постоянный
Частота кадров : 23,976 кадра/сек
Цветовое пространство : YUV
Субдискретизация насыщенности : 4:2:0
Битовая глубина : 8 бит
Тип развёртки : Прогрессивная
Бит/(Пиксели*Кадры) : 0.272
Размер потока : 8,58 Гбайт (82%)
Библиотека кодирования : x264 core 132 r2323+704+51 d571b1c tMod [8-bit@4:2:0 X86_64]
Настройки программы : cabac=1 / ref=5 / deblock=1:-3:-3 / analyse=0x3:0x113 / me=umh / subme=11 / psy=1 / fade_compensate=0.00 / psy_rd=1.01:0.00 / mixed_ref=1 / me_range=32 / chroma_me=1 / trellis=2 / 8x8dct=1 / cqm=0 / deadzone=21,11 / fast_pskip=0 / chroma_qp_offset=-2 / threads=36 / lookahead_threads=6 / sliced_threads=0 / nr=0 / decimate=0 / interlaced=0 / bluray_compat=0 / constrained_intra=0 / fgo=0 / bframes=8 / b_pyramid=2 / b_adapt=2 / b_bias=0 / direct=3 / weightb=1 / open_gop=0 / weightp=2 / keyint=240 / keyint_min=24 / scenecut=40 / intra_refresh=0 / rc=2pass / mbtree=0 / bitrate=10000 / ratetol=1.0 / qcomp=0.70 / qpmin=0 / qpmax=69 / qpstep=4 / cplxblur=20.0 / qblur=0.5 / ip_ratio=1.20 / pb_ratio=1.20 / aq=4:0.90 / aq-sensitivity=10.00 / aq-factor=1.00:1.00:1.00 / aq2=0 / aq3=0
Язык : English
Default : Да
Forced : Нет

Аудио #1
Идентификатор : 2
Формат : AC-3
Формат/Информация : Audio Coding 3
Расширение режима : CM (complete main)
Параметр Endianness формата : Big
Идентификатор кодека : A_AC3
Продолжительность : 2 ч. 5 м.
Вид битрейта : Постоянный
Битрейт : 448 Кбит/сек
Каналы : 6 каналов
Расположение каналов : Front: L C R, Side: L R, LFE
Частота : 48,0 КГц
Битовая глубина : 16 бит
Метод сжатия : С потерями
Размер потока : 403 Мбайт (4%)
Язык : Russian
Default : Да
Forced : Нет

Аудио #2
Идентификатор : 3
Формат : DTS
Формат/Информация : Digital Theater Systems
Режим : 16
Параметр Endianness формата : Big
Идентификатор кодека : A_DTS
Продолжительность : 2 ч. 5 м.
Вид битрейта : Постоянный
Битрейт : 1509 Кбит/сек
Каналы : 6 каналов
Расположение каналов : Front: L C R, Side: L R, LFE
Частота : 48,0 КГц
Битовая глубина : 24 бит
Метод сжатия : С потерями
Размер потока : 1,32 Гбайт (13%)
Язык : English
Default : Нет
Forced : Нет

Текст
Идентификатор : 4
Формат : PGS
Идентификатор кодека : S_HDMV/PGS
Идентификатор кодека/Информация : The same subtitle format used on BDs/HD-DVDs
Язык : English
Default : Да
Forced : Нет

Меню
00:00:00.000 : en:00:00:00.000
00:06:03.530 : en:00:06:03.530
00:12:12.398 : en:00:12:12.398
00:20:29.770 : en:00:20:29.770
00:25:19.727 : en:00:25:19.727
00:31:01.234 : en:00:31:01.234
00:35:37.135 : en:00:35:37.135
00:40:02.317 : en:00:40:02.317
00:45:39.153 : en:00:45:39.153
00:51:08.482 : en:00:51:08.482
00:55:26.198 : en:00:55:26.198
01:03:49.951 : en:01:03:49.951
01:13:51.761 : en:01:13:51.761
01:18:54.355 : en:01:18:54.355
01:27:54.144 : en:01:27:54.144
01:32:36.468 : en:1:32:36.468
01:37:53.284 : en:01:37:53.284
01:46:51.697 : en:01:46:51.697
01:52:23.528 : en:01:52:23.528
01:57:30.669 : en:01:57:30.669
Свернуть
Знаете ли вы, что...
Фильм снят по мотивам романа Стефани Майер «Гостья» (The Host, 2008).

Кроме Макса Айронса, претендентами на роль Джареда были Шайло Фернандез, Лиам Хемсворт, Кит Харингтон, Джей Кортни и Уилсон Бетел.

Дианна Агрон пробовалась на роль Мелани Страйдер.

Кроме Джейка Эйбела, претендентами на роль Иена были Дэйн ДеХаан, Томас МакДонелл и Август Прю.

Ева Грин, Хейли Этвелл и Клэр Дэйнс отказались от роли искателя.

Свернуть
Скриншоты
Изображение
Изображение
Изображение
Изображение
Свернуть
В сети
Профиль  
 Добавлено: 2013-07-04 16:47 (спустя 2 дня 3 часа)
Стаж: 4 года 5 месяцев
Сообщений: 7
Народ , кто скачал , напишите , это больше драма , мелодрама или фантастика ?
Не в сети
Профиль  
 Добавлено: 2013-07-04 19:19 (спустя 2 часа 31 минута)
Аватара пользователя
Стаж: 6 лет
Сообщений: 75
Лайков: 1

TERMALTAKE:

Народ , кто скачал , напишите , это больше драма , мелодрама или фантастика ?
:-D :-D :-D Это фантастическая драма с мелодраматическим концом я б даже сказал :-D :-D :-D
Не в сети
Профиль  
 Добавлено: 2013-07-10 20:58 (спустя 6 дней)
Стаж: 5 лет 1 месяц
Сообщений: 39
Лайков: 2
Бред полный!!!!!!!!!!!!
Не в сети
Профиль  
 Добавлено: 2013-07-15 16:50 (спустя 4 дня)
Аватара пользователя
Стаж: 8 лет 11 месяцев
Сообщений: 170
Спасибок: 139
Тупое мыло для любителей сумерек, нету проработанности мира, какие то белые души паразиты вселились в людей и всех поработили, зачем было порабощать человечество неизвестно, притом вселяются тока через разрез в шее, как умудрились вселиться хотя бы в одного человека загадка, не говоря о миллиардах, их можно вытащить оттуда тока, если выманить их добротой и любовью))))
Не в сети
Профиль  
Начать новую темуОтветить на тему  [ Сообщений: 5 ] 
Вы не можете начинать темы
Вы не можете отвечать на сообщения
Вы не можете редактировать свои сообщения
Вы не можете удалять свои сообщения