Правила форума

  • В этом разделе создание новых тем Запрещено.
  • Для создания новых тем пользуйтесь Корневым разделом DVD и HD фильмы.
Начать новую темуОтветить на тему  [ 1 сообщение ] 
Торрент файл
Размер: 7.71 GB • Зарегистрирован: 1 год 5 месяцев • Статус: Проверено
Скачан: 15 раз • Желающих скачать: 0 • Поблагодарили: 2 раза
 Раздают: 0  |  0 KB/s  ]   Качают: 0  |  0 KB/s  ] 
 Полного источника не было 3 дня 
Сообщения
 Добавлено: 2015-07-08 13:30
RG-ELEKTRO
Аватара пользователя
Стаж: 2 года 3 месяца
Сообщений: 7928
Спасибок: 53788
Лайков: 3304
Готова на всё / Malice


Изображение


Год выпуска: 1993
Страна: Канада, США (Castle Rock Entertainment, New Line Cinema, Nelvana Limited)
Жанр: триллер, криминал, детектив
Продолжительность: 01:46:52
Перевод: Профессиональный (двухголосый, закадровый) + Авторский одноголосый (А. Гаврилов) + Оригинальная звуковая дорожка
Субтитры: Русские, Английские

Режиссёр: Харольд Беккер
Сценарист: Аарон Соркин, Скотт Фрэнк, Йонас МакКорд
Продюсер: Харольд Беккер, Чарльз Малвехилл, Рэйчел Феффер
Оператор: Гордон Уиллис
Композитор: Джерри Голдсмит
В ролях: Алек Болдуин, Николь Кидман, Билл Пуллман, Биби Ньювирт, Джордж К. Скотт, Энн Бэнкрофт, Питер Галлахер, Йозеф Зоммер, Гвинет Пэлтроу, Тобин Белл
Описание: Энди Сафиан преподает в колледже и счастлив в браке с красавицей-женой Трейси. Но случай сводит их с преуспевающим хирургом Джедом, который постепенно вовлекает их в в запутанный узел интриг и предательства.
Мировая премьера: 29 сентября 1993
Кассовые сборы: $46 405 336
Изображение Изображение
Качество: BDRip 1080p
Формат: MKV
Видео кодек: MPEG-4 AVC
Аудио кодек: AC3
Видео: MPEG-4 AVC, 1920x1040, 8 200 Кбит/с, 23.976 кадр/с
Аудио #1: AC3, 2ch, 448 Кбит/с, 48.0 KHz [Профессиональный (двухголосый, закадровый) R5]
Аудио #2: AC3, 2ch, 192 Кбит/с, 48.0 KHz [Профессиональный (двухголосый, закадровый) Екатеринбург Арт]
Аудио #3: AC3, 2ch, 192 Кбит/с, 48.0 KHz [Профессиональный (двухголосый, закадровый) НТВ+]
Аудио #4: AC3, 2ch, 192 Кбит/с, 48.0 KHz [Профессиональный (двухголосый, закадровый) ТВ-6]
Аудио #5: AC3, 2ch, 448 Кбит/с, 48.0 KHz [Авторский одноголосый (А. Гаврилов)]
Аудио #6: Украинский (AC3, 2ch, 192 Кбит/с, 48.0 KHz) [Профессиональный (двухголосый, закадровый) Кіно]
Аудио #7: Английский (AC3, 2ch, 448 Кбит/с, 48.0 KHz) [Оригинальная звуковая дорожка]
Субтитры: Русские, Английские

"MI"
General
Unique ID : 255191805837473397182124185480851926586 (0xBFFC276F53B28C59AD4FFACEF0A8AE3A)
Complete name : Malice.1993.BDRip.1080p.mkv
Format : Matroska
Format version : Version 4 / Version 2
File size : 7.71 GiB
Duration : 1h 46mn
Overall bit rate : 10.3 Mbps
Encoded date : UTC 2015-07-08 08:54:28
Writing application : mkvmerge v7.8.0 ('River Man') 64bit built on Mar 27 2015 16:31:37
Writing library : libebml v1.3.1 + libmatroska v1.4.2
DURATION : 01:46:52.032000000
NUMBER_OF_FRAMES : 200376
NUMBER_OF_BYTES : 359073792
_STATISTICS_WRITING_APP : mkvmerge v7.8.0 ('River Man') 64bit built on Mar 27 2015 16:31:37
_STATISTICS_WRITING_DATE_UTC : 2015-07-08 08:54:28
_STATISTICS_TAGS : BPS DURATION NUMBER_OF_FRAMES NUMBER_OF_BYTES

Video
ID : 1
Format : AVC
Format/Info : Advanced Video Codec
Format profile : High@L4.1
Format settings, CABAC : Yes
Format settings, ReFrames : 4 frames
Codec ID : V_MPEG4/ISO/AVC
Duration : 1h 46mn
Nominal bit rate : 8 200 Kbps
Width : 1 920 pixels
Height : 1 040 pixels
Display aspect ratio : 1.85:1
Frame rate mode : Constant
Frame rate : 23.976 fps
Color space : YUV
Chroma subsampling : 4:2:0
Bit depth : 8 bits
Scan type : Progressive
Bits/(Pixel*Frame) : 0.171
Title : Video
Writing library : x264 core 130 r2273 b3065e6
Encoding settings : cabac=1 / ref=4 / deblock=1:-1:-1 / analyse=0x3:0x113 / me=umh / subme=11 / psy=1 / psy_rd=1.00:0.15 / mixed_ref=1 / me_range=32 / chroma_me=1 / trellis=2 / 8x8dct=1 / cqm=0 / deadzone=21,11 / fast_pskip=0 / chroma_qp_offset=2 / threads=6 / lookahead_threads=1 / sliced_threads=0 / nr=0 / decimate=1 / interlaced=0 / bluray_compat=0 / constrained_intra=0 / bframes=10 / b_pyramid=2 / b_adapt=2 / b_bias=0 / direct=3 / weightb=1 / open_gop=1 / weightp=2 / keyint=250 / keyint_min=23 / scenecut=40 / intra_refresh=0 / rc_lookahead=50 / rc=2pass / mbtree=1 / bitrate=8200 / ratetol=1.0 / qcomp=0.69 / qpmin=0 / qpmax=69 / qpstep=4 / cplxblur=20.0 / qblur=0.5 / ip_ratio=1.40 / aq=1:1.00
Language : English
Default : Yes
Forced : No

Audio #1
ID : 2
Format : AC-3
Format/Info : Audio Coding 3
Mode extension : CM (complete main)
Format settings, Endianness : Big
Codec ID : A_AC3
Duration : 1h 46mn
Bit rate mode : Constant
Bit rate : 448 Kbps
Channel(s) : 2 channels
Channel positions : Front: L R
Sampling rate : 48.0 KHz
Bit depth : 16 bits
Compression mode : Lossy
Stream size : 342 MiB (4%)
Title : Audio 1
Language : Russian
Default : Yes
Forced : No

Audio #2
ID : 3
Format : AC-3
Format/Info : Audio Coding 3
Mode extension : CM (complete main)
Format settings, Endianness : Big
Codec ID : A_AC3
Duration : 1h 46mn
Bit rate mode : Constant
Bit rate : 192 Kbps
Channel(s) : 2 channels
Channel positions : Front: L R
Sampling rate : 48.0 KHz
Bit depth : 16 bits
Compression mode : Lossy
Stream size : 147 MiB (2%)
Title : Audio 2
Language : Russian
Default : No
Forced : No

Audio #3
ID : 4
Format : AC-3
Format/Info : Audio Coding 3
Mode extension : CM (complete main)
Format settings, Endianness : Big
Codec ID : A_AC3
Duration : 1h 46mn
Bit rate mode : Constant
Bit rate : 192 Kbps
Channel(s) : 2 channels
Channel positions : Front: L R
Sampling rate : 48.0 KHz
Bit depth : 16 bits
Compression mode : Lossy
Stream size : 147 MiB (2%)
Title : Audio 3
Language : Russian
Default : No
Forced : No

Audio #4
ID : 5
Format : AC-3
Format/Info : Audio Coding 3
Mode extension : CM (complete main)
Format settings, Endianness : Big
Codec ID : A_AC3
Duration : 1h 46mn
Bit rate mode : Constant
Bit rate : 192 Kbps
Channel(s) : 2 channels
Channel positions : Front: L R
Sampling rate : 48.0 KHz
Bit depth : 16 bits
Compression mode : Lossy
Stream size : 147 MiB (2%)
Title : Audio 4
Language : Russian
Default : No
Forced : No

Audio #5
ID : 6
Format : AC-3
Format/Info : Audio Coding 3
Mode extension : CM (complete main)
Format settings, Endianness : Big
Codec ID : A_AC3
Duration : 1h 46mn
Bit rate mode : Constant
Bit rate : 448 Kbps
Channel(s) : 2 channels
Channel positions : Front: L R
Sampling rate : 48.0 KHz
Bit depth : 16 bits
Compression mode : Lossy
Stream size : 342 MiB (4%)
Title : Audio 5
Language : Russian
Default : No
Forced : No

Audio #6
ID : 7
Format : AC-3
Format/Info : Audio Coding 3
Mode extension : CM (complete main)
Format settings, Endianness : Big
Codec ID : A_AC3
Duration : 1h 46mn
Bit rate mode : Constant
Bit rate : 192 Kbps
Channel(s) : 2 channels
Channel positions : Front: L R
Sampling rate : 48.0 KHz
Bit depth : 16 bits
Compression mode : Lossy
Stream size : 147 MiB (2%)
Title : Audio 6
Language : Ukrainian
Default : No
Forced : No

Audio #7
ID : 8
Format : AC-3
Format/Info : Audio Coding 3
Codec ID : A_AC3
Duration : 1h 46mn
Channel(s) : 2 channels
Sampling rate : 48.0 KHz
Compression mode : Lossy
Title : Audio 7
Language : English
Default : No
Forced : No

Text #1
ID : 9
Format : PGS
Muxing mode : zlib
Codec ID : S_HDMV/PGS
Codec ID/Info : The same subtitle format used on BDs/HD-DVDs
Language : Russian
Default : Yes
Forced : No

Text #2
ID : 10
Format : PGS
Muxing mode : zlib
Codec ID : S_HDMV/PGS
Codec ID/Info : The same subtitle format used on BDs/HD-DVDs
Language : English
Default : No
Forced : No

Menu
00:00:00.000 : en:Chapter 1
00:15:46.737 : en:Chapter 2
00:27:36.237 : en:Chapter 3
00:47:04.947 : en:Chapter 4
01:00:57.362 : en:Chapter 5
01:09:23.325 : en:Chapter 6
01:24:18.428 : en:Chapter 7
01:33:49.040 : en:Chapter 8
Свернуть

Скриншоты
Изображение
Изображение
Изображение
Изображение
Свернуть
Изображение


Изображение Изображение
Не в сети
Профиль  
Начать новую темуОтветить на тему  [ 1 сообщение ] 
Вы не можете начинать темы
Вы не можете отвечать на сообщения
Вы не можете редактировать свои сообщения
Вы не можете удалять свои сообщения